<?xml version="1.0" encoding="UTF-8" standalone="no"?>
<!DOCTYPE svg PUBLIC "-//W3C//DTD SVG 1.1//EN" "http://www.w3.org/Graphics/SVG/1.1/DTD/svg11.dtd">
<svg xmlns="http://www.w3.org/2000/svg">
<metadata/>
<defs>
<font id="apercubold" horiz-adv-x="1548">
<font-face units-per-em="2048" ascent="1638" descent="-410"/>
<missing-glyph horiz-adv-x="507"/>
<glyph unicode="ﬁ" horiz-adv-x="1171" d="M66 815v217h131v12q0 198 127 302t352 104q182 0 297 -59l-80 -193q-87 35 -203 35q-113 0 -176 -49.5t-63 -141.5v-10h579v-1032h-254v815h-325v-815h-254v815h-131z"/>
<glyph unicode="ﬂ" horiz-adv-x="1275" d="M66 815v217h131v53q0 180 93.5 272.5t262.5 92.5h567v-1450h-254v1233h-299q-116 0 -116 -129v-72h217v-217h-217v-815h-254v815h-131z"/>
<glyph horiz-adv-x="0"/>
<glyph horiz-adv-x="0"/>
<glyph horiz-adv-x="682"/>
<glyph unicode="" horiz-adv-x="507"/>
<glyph unicode=" " horiz-adv-x="507"/>
<glyph unicode="	" horiz-adv-x="507"/>
<glyph unicode=" " horiz-adv-x="507"/>
<glyph unicode="!" horiz-adv-x="737" d="M205 156q0 72 50.5 122t119.5 50t119.5 -50t50.5 -122q0 -70 -49.5 -119t-120.5 -49t-120.5 49t-49.5 119zM207 1434h336l-58 -938h-221z"/>
<glyph unicode="&quot;" horiz-adv-x="1005" d="M164 1450h289l-64 -510h-162zM553 1450h289l-64 -510h-162z"/>
<glyph unicode="#" horiz-adv-x="1507" d="M133 395v201h275l49 242h-242v200h283l82 396h204l-82 -396h234l80 396h205l-80 -396h233v-200h-274l-49 -242h241v-201h-282l-82 -395h-205l82 395h-234l-79 -395h-205l80 395h-234zM612 596h234l49 242h-233z"/>
<glyph unicode="$" horiz-adv-x="1099" d="M72 385l215 135q82 -291 284 -291q187 0 187 187q0 110 -213 200q-43 18 -75.5 33.5t-75.5 40t-74.5 49t-64 59t-53 72.5t-33 87t-11.5 104q0 135 76.5 237.5t203.5 137.5v182h250v-186q185 -52 275 -242l-215 -137q-77 151 -199 151q-60 0 -98.5 -37t-38.5 -94 q0 -112 215 -213q47 -21 77 -35t76.5 -39.5t76.5 -48.5t65 -57.5t55 -69.5t33.5 -81.5t13.5 -98.5q0 -175 -89.5 -288t-246.5 -146v-180h-250v184q-141 35 -238.5 139.5t-127.5 245.5z"/>
<glyph unicode="%" horiz-adv-x="1716" d="M106 1122q0 139 95 234q94 94 241 94q146 0 240 -94q96 -96 96 -234q0 -137 -96 -233q-94 -94 -240 -94q-147 0 -241 94q-95 95 -95 233zM240 41l1101 1470l148 -116l-1102 -1473zM316 1122q0 -58 32 -96q34 -37 94 -37q59 0 93 37q35 38 35 96t-35 95q-32 38 -93 38 q-62 0 -94 -38q-32 -37 -32 -95zM938 311q0 140 94 234t242 94q145 0 239 -94q97 -97 97 -234q0 -136 -97 -233q-94 -94 -239 -94q-148 0 -242 94t-94 233zM1148 311q0 -58 32 -96q34 -37 94 -37q58 0 92 37q35 38 35 96t-35 95q-32 38 -92 38q-62 0 -94 -38 q-32 -37 -32 -95z"/>
<glyph unicode="&amp;" horiz-adv-x="1425" d="M135 422q0 143 74 257t199 185q-99 138 -99 281q0 128 92 217q91 88 242 88q153 0 242 -86q90 -84 90 -201t-64.5 -212t-169.5 -152l236 -310q55 102 104 259l148 -173q-38 -159 -107 -276l230 -299h-301l-84 111q-160 -127 -377 -127q-198 0 -326 116q-129 120 -129 322 zM381 426q0 -89 59 -148t152 -59q133 0 233 80l-288 385q-156 -94 -156 -258zM535 1128q0 -74 65 -157q145 65 145 166q0 42 -28.5 69t-73.5 27q-48 0 -78 -29t-30 -76z"/>
<glyph unicode="'" horiz-adv-x="616" d="M164 1450h289l-64 -510h-162z"/>
<glyph unicode="(" horiz-adv-x="614" d="M131 717q0 188 35 354q35 168 74 252q55 119 106 213h219q-188 -344 -188 -819q0 -278 45 -457q44 -175 143 -362h-219q-57 104 -106 211q-39 85 -74 251t-35 357z"/>
<glyph unicode=")" horiz-adv-x="614" d="M49 -102q95 179 141 362q48 190 48 457q0 473 -189 819h219q57 -104 107 -213q43 -99 75.5 -263.5t32.5 -342.5q0 -196 -34 -357q-35 -166 -74 -251q-44 -96 -107 -211h-219z"/>
<glyph unicode="*" horiz-adv-x="995" d="M102 1090l68 202l223 -73v231h209v-231l223 73l68 -202l-223 -76l137 -187l-174 -129l-135 191l-136 -191l-174 129l138 187z"/>
<glyph unicode="+" horiz-adv-x="1196" d="M113 539v221h376v377h222v-377h376v-221h-376v-377h-222v377h-376z"/>
<glyph unicode="," horiz-adv-x="743" d="M117 -319l153 618h342l-317 -618h-178z"/>
<glyph unicode="-" horiz-adv-x="1030" d="M133 539v221h764v-221h-764z"/>
<glyph unicode="." horiz-adv-x="671" d="M164 160q0 74 49 123t123 49t123 -49t49 -123t-49 -123t-123 -49t-123 49t-49 123z"/>
<glyph unicode="/" horiz-adv-x="1126" d="M16 -102l893 1638h246l-893 -1638h-246z"/>
<glyph unicode="0" horiz-adv-x="1310" d="M127 717q0 346 137 538q139 195 391 195q253 0 392 -195q137 -192 137 -538q0 -349 -137 -541t-392 -192q-254 0 -391 192t-137 541zM381 717q0 -496 274 -496q275 0 275 496q0 495 -275 495q-274 0 -274 -495z"/>
<glyph unicode="1" horiz-adv-x="847" d="M139 909v279l420 246h113v-1434h-258v1073z"/>
<glyph unicode="2" horiz-adv-x="1185" d="M131 0v102l512 662q111 138 111 260q0 89 -45.5 138.5t-130.5 49.5q-78 0 -126.5 -48.5t-60.5 -139.5l-237 45q9 162 131 272q121 109 299 109q199 0 313.5 -114t114.5 -302q0 -176 -123 -340l-350 -456h503v-238h-911z"/>
<glyph unicode="3" horiz-adv-x="1206" d="M115 397l247 33q53 -209 232 -209q100 0 163.5 66t63.5 174q0 119 -61.5 185.5t-163.5 66.5q-65 0 -125 -31l-102 143l270 371h-457v238h822v-91l-338 -456q50 4 57 4q163 0 259.5 -117t96.5 -309q0 -219 -137 -350t-348 -131q-198 0 -330 114q-131 116 -149 299z"/>
<glyph unicode="4" horiz-adv-x="1259" d="M121 266v131l604 1037h270v-930h160v-238h-160v-266h-258v266h-616zM434 504h303v547z"/>
<glyph unicode="5" horiz-adv-x="1193" d="M147 375l244 45q40 -199 215 -199q104 0 158.5 65.5t54.5 188.5q0 121 -58 184.5t-167 63.5q-140 0 -254 -129l-162 33l80 807h737v-238h-526l-33 -299q89 53 203 53q213 0 325.5 -125.5t112.5 -349.5q0 -218 -129 -356q-129 -135 -342 -135q-186 0 -313 106 q-128 110 -146 285z"/>
<glyph unicode="6" horiz-adv-x="1214" d="M143 451q0 132 70 251l418 748h287l-312 -532h33q198 0 330 -132q133 -130 133 -335q0 -203 -137 -334q-139 -133 -342 -133t-342 133q-138 132 -138 334zM401 451q0 -101 64 -165.5t158 -64.5q95 0 158 64t63 166q0 104 -61.5 166.5t-159.5 62.5t-160 -62.5t-62 -166.5z "/>
<glyph unicode="7" horiz-adv-x="1017" d="M100 1196v238h869v-107l-541 -1327h-254l490 1196h-564z"/>
<glyph unicode="8" horiz-adv-x="1216" d="M141 428q0 235 189 344q-133 106 -133 287q0 162 114 276q118 115 297 115q180 0 295 -115q117 -114 117 -276q0 -179 -135 -287q190 -108 190 -344q0 -205 -137 -324q-135 -120 -330 -120q-194 0 -332 120q-135 120 -135 324zM399 428q0 -95 60 -152q58 -55 149 -55 q92 0 150 55q59 56 59 152t-59 152q-58 55 -150 55q-91 0 -149 -55q-60 -57 -60 -152zM436 1055q0 -82 47 -132.5t125 -50.5t125 50.5t47 132.5q0 80 -47 129t-125 49t-125 -49t-47 -129z"/>
<glyph unicode="9" horiz-adv-x="1214" d="M145 983q0 202 138 334q139 133 342 133q201 0 340 -133t139 -334q0 -133 -70 -252l-418 -747h-286l311 532h-33q-200 0 -332 129q-131 131 -131 338zM403 983q0 -104 62 -166.5t160 -62.5t159.5 62.5t61.5 166.5q0 101 -63.5 165t-157.5 64q-95 0 -158.5 -64t-63.5 -165 z"/>
<glyph unicode=":" horiz-adv-x="692" d="M168 160q0 74 49 123t123 49t123 -49t49 -123t-49 -123t-123 -49t-123 49t-49 123zM168 877q0 73 49 122t123 49t123 -49t49 -122t-49 -123t-123 -50t-123 50t-49 123z"/>
<glyph unicode=";" horiz-adv-x="692" d="M25 -319l153 618h342l-317 -618h-178zM166 877q0 73 49 122t123 49t123 -49t49 -122t-49 -123t-123 -50t-123 50t-49 123z"/>
<glyph unicode="&lt;" horiz-adv-x="997" d="M92 516v238l801 417v-268l-516 -268l516 -268v-269z"/>
<glyph unicode="=" horiz-adv-x="1263" d="M184 340v221h895v-221h-895zM184 709v221h895v-221h-895z"/>
<glyph unicode="&gt;" horiz-adv-x="997" d="M104 98v269l517 268l-517 268v268l801 -417v-238z"/>
<glyph unicode="?" horiz-adv-x="942" d="M86 1137q25 139 130 226t261 87q172 0 275.5 -88t103.5 -236q0 -113 -68 -178q-61 -61 -215 -121q-105 -42 -139.5 -68.5t-34.5 -66.5q0 -32 21.5 -51.5t52.5 -19.5q83 0 117 94l180 -68q-36 -100 -113 -155.5t-184 -55.5q-125 0 -204 72.5t-79 189.5q0 184 222 267 q117 44 160.5 81t43.5 89q0 50 -35.5 76t-97.5 26q-134 0 -174 -137zM303 156q0 72 50.5 122t119.5 50t119.5 -50t50.5 -122q0 -70 -49.5 -119t-120.5 -49t-120.5 49t-49.5 119z"/>
<glyph unicode="@" horiz-adv-x="1855" d="M123 616q0 387 237 621q236 233 615 233q374 0 577 -206q205 -205 205 -543q0 -225 -108 -363q-107 -137 -281 -137q-76 0 -137 39.5t-86 101.5q-114 -141 -275 -141q-168 0 -266 105.5t-98 279.5q0 189 119 320t323 131q123 0 213 -78l23 63h170l-41 -448 q-1 -17 -2 -31.5t-1 -20.5l-1 -7q0 -105 80 -105q122 0 122 301q0 257 -146.5 394t-399.5 137q-241 0 -420 -170q-176 -170 -176 -476q0 -118 35.5 -218.5t94 -169.5t136 -118t160.5 -71.5t168 -22.5q57 0 135 4q65 7 161 35t191 74l80 -199q-142 -67 -273 -94 q-139 -29 -294 -29q-373 0 -607 228q-233 230 -233 581zM741 596q0 -166 148 -166q92 0 153.5 70.5t61.5 175.5q0 82 -43.5 127t-122.5 45q-82 0 -139.5 -70t-57.5 -182z"/>
<glyph unicode="A" horiz-adv-x="1257" d="M10 0l486 1434h266l485 -1434h-286l-105 338h-455l-104 -338h-287zM477 584h303l-151 497z"/>
<glyph unicode="B" horiz-adv-x="1277" d="M184 0v1434h525q192 0 300.5 -99.5t108.5 -287.5q0 -89 -37 -159.5t-104 -105.5q215 -89 215 -350q0 -206 -125 -319t-348 -113h-535zM451 246h243q232 0 232 192q0 193 -232 193h-243v-385zM451 877h243q87 0 127.5 36t40.5 119t-42 119.5t-132 36.5h-237v-311z"/>
<glyph unicode="C" horiz-adv-x="1433" d="M98 717q0 344 197 538q198 195 481 195q233 0 388 -113.5t206 -320.5l-240 -62q-95 250 -354 250q-177 0 -293 -125q-114 -126 -114 -362q0 -237 114 -363q116 -125 293 -125q259 0 354 250l240 -61q-51 -207 -206 -320.5t-388 -113.5q-284 0 -481 194t-197 539z"/>
<glyph unicode="D" horiz-adv-x="1398" d="M184 0v1434h449q104 0 199.5 -26t181 -83t149 -139t100.5 -202.5t37 -266.5t-37 -266.5t-100.5 -202.5t-149 -139t-181 -83t-199.5 -26h-449zM451 246h98q189 0 323 92q75 50 116.5 147.5t41.5 231.5t-41.5 231.5t-116.5 147.5q-134 92 -323 92h-98v-942z"/>
<glyph unicode="E" horiz-adv-x="1177" d="M184 0v1434h887v-246h-620v-301h497v-246h-497v-395h641v-246h-908z"/>
<glyph unicode="F" horiz-adv-x="1150" d="M184 0v1434h908v-246h-641v-328h516v-246h-516v-614h-267z"/>
<glyph unicode="G" horiz-adv-x="1499" d="M98 717q0 347 199 540t483 193q227 0 382.5 -122t213.5 -331l-243 -63q-111 270 -353 270q-188 0 -299.5 -126.5t-111.5 -360.5q0 -239 109.5 -363.5t295.5 -124.5q139 0 223.5 78t98.5 195h-267v221h525v-723h-224l-22 154q-114 -170 -348 -170q-277 0 -469 192 q-193 193 -193 541z"/>
<glyph unicode="H" horiz-adv-x="1474" d="M184 0v1434h267v-545h573v545h266v-1434h-266v643h-573v-643h-267z"/>
<glyph unicode="I" horiz-adv-x="634" d="M184 0v1434h267v-1434h-267z"/>
<glyph unicode="J" horiz-adv-x="1054" d="M4 354l262 56q34 -181 180 -181q96 0 143.5 57.5t47.5 188.5v959h266v-930q0 -272 -114.5 -396t-342.5 -124q-185 0 -302 98t-140 272z"/>
<glyph unicode="K" horiz-adv-x="1316" d="M184 0v1434h267v-533l489 533h328l-582 -641l623 -793h-338l-520 684v-684h-267z"/>
<glyph unicode="L" horiz-adv-x="1087" d="M184 0v1434h267v-1188h608v-246h-875z"/>
<glyph unicode="M" horiz-adv-x="1642" d="M184 0v1434h299l338 -895l338 895h299v-1434h-266v885l-274 -754h-193l-274 754v-885h-267z"/>
<glyph unicode="N" horiz-adv-x="1441" d="M184 0v1434h281l526 -947v947h266v-1434h-280l-526 946v-946h-267z"/>
<glyph unicode="O" d="M98 717q0 233 93 405.5t247 249.5q153 78 336 78q402 0 580 -324q96 -172 96 -409q0 -233 -93 -405t-247 -253q-147 -75 -336 -75q-397 0 -581 323q-95 170 -95 410zM369 717q0 -242 114 -365q117 -123 291 -123q175 0 289 123q117 123 117 365q0 241 -117 364 q-114 123 -289 123q-174 0 -291 -123q-114 -123 -114 -364z"/>
<glyph unicode="P" horiz-adv-x="1212" d="M184 0v1434h541q216 0 332.5 -118t116.5 -319t-116.5 -318.5t-332.5 -117.5h-274v-561h-267zM451 807h264q188 0 188 190q0 191 -188 191h-264v-381z"/>
<glyph unicode="Q" d="M98 717q0 239 95 409q184 324 581 324q183 0 336 -78q154 -77 247 -249.5t93 -405.5q0 -242 -96 -414l137 -135l-186 -184l-125 122q-168 -122 -406 -122q-397 0 -581 323q-95 170 -95 410zM369 717q0 -242 114 -365q117 -123 291 -123q124 0 219 62l-186 188l186 185 l156 -158q31 91 31 211q0 241 -117 364q-114 123 -289 123q-174 0 -291 -123q-114 -123 -114 -364z"/>
<glyph unicode="R" horiz-adv-x="1337" d="M184 0v1434h523q206 0 321 -110.5t115 -297.5q0 -143 -70.5 -245t-198.5 -140l398 -641h-297l-385 618h-139v-618h-267zM451 864h258q168 0 168 162t-168 162h-258v-324z"/>
<glyph unicode="S" horiz-adv-x="1099" d="M72 385l215 135q82 -291 284 -291q187 0 187 187q0 110 -213 200q-43 18 -75.5 33.5t-75.5 40t-74.5 49t-64 59t-53 72.5t-32.5 87q-12 45 -12 96v8q0 163 110 276q113 113 281 113q291 0 414 -260l-215 -137q-77 151 -199 151q-60 0 -98.5 -37t-38.5 -94 q0 -112 215 -213q47 -21 77 -35t76.5 -39.5t76.5 -48.5t65 -57.5t55 -69.5t33.5 -81.5t13.5 -98.5q0 -208 -124 -327t-335 -119q-188 0 -323 114q-135 117 -170 287z"/>
<glyph unicode="T" horiz-adv-x="1093" d="M16 1188v246h1061v-246h-397v-1188h-266v1188h-398z"/>
<glyph unicode="U" horiz-adv-x="1343" d="M137 545v889h266v-893q0 -312 269 -312q268 0 268 312v893h266v-889q0 -273 -141.5 -417t-392.5 -144t-393 144t-142 417z"/>
<glyph unicode="V" horiz-adv-x="1236" d="M2 1434h295l321 -1061l322 1061h295l-481 -1434h-271z"/>
<glyph unicode="W" horiz-adv-x="1884" d="M37 1434h282l240 -1055l268 903h230l268 -903l240 1055h282l-374 -1434h-271l-260 844l-260 -844h-270z"/>
<glyph unicode="X" horiz-adv-x="1212" d="M14 0l447 774l-379 660h291l233 -406l234 406h290l-378 -660l446 -774h-295l-297 518l-297 -518h-295z"/>
<glyph unicode="Y" horiz-adv-x="1093" d="M0 1434h287l260 -557l260 557h287l-414 -824v-610h-266v610z"/>
<glyph unicode="Z" horiz-adv-x="1142" d="M61 0v123l621 1065h-586v246h951v-123l-615 -1065h643v-246h-1014z"/>
<glyph unicode="[" horiz-adv-x="720" d="M184 -102v1638h471v-221h-225v-1196h225v-221h-471z"/>
<glyph unicode="\" horiz-adv-x="1126" d="M-29 1536h246l893 -1638h-246z"/>
<glyph unicode="]" horiz-adv-x="720" d="M66 -102v221h225v1196h-225v221h471v-1638h-471z"/>
<glyph unicode="^" horiz-adv-x="1226" d="M104 825l400 609h219l399 -609h-245l-263 387l-264 -387h-246z"/>
<glyph unicode="_" horiz-adv-x="1034" d="M51 0h932v-221h-932v221z"/>
<glyph unicode="`" horiz-adv-x="532" d="M27 1450h344l131 -303h-195z"/>
<glyph unicode="a" horiz-adv-x="1052" d="M78 297q0 153 121.5 245.5t318.5 92.5h172v45q0 151 -180 151q-138 0 -178 -118l-215 49q25 130 132 208.5t261 78.5q434 0 434 -433v-616h-209l-26 131q-120 -147 -318 -147q-140 0 -226.5 83.5t-86.5 229.5zM344 301q0 -43 29 -71.5t78 -28.5q94 0 165 59q74 59 74 154 v20h-170q-176 0 -176 -133z"/>
<glyph unicode="b" horiz-adv-x="1226" d="M164 0v1450h254v-512q37 46 107 78.5t143 32.5q225 0 348 -142.5t123 -390.5q0 -247 -123 -389.5t-348 -142.5q-83 0 -153 37t-97 85v-106h-254zM395 516q0 -149 66 -233q67 -82 172 -82q103 0 172 84q67 82 67 231q0 150 -67 232q-68 83 -172 83t-172 -83 q-66 -84 -66 -232z"/>
<glyph unicode="c" horiz-adv-x="1128" d="M88 516q0 232 131 381q134 152 373 152q349 0 469 -295l-227 -92q-82 169 -242 169q-115 0 -176.5 -85.5t-61.5 -229.5t61.5 -229.5t176.5 -85.5q159 0 242 170l227 -92q-120 -295 -469 -295q-240 0 -373 151q-131 149 -131 381z"/>
<glyph unicode="d" horiz-adv-x="1226" d="M88 516q0 248 123 390.5t348 142.5q73 0 143 -32.5t107 -78.5v512h254v-1450h-254v106q-27 -48 -97 -85t-153 -37q-225 0 -348 142.5t-123 389.5zM354 516q0 -148 68 -231q69 -84 172 -84q106 0 170 82q67 82 67 233q0 150 -67 232q-65 83 -170 83q-104 0 -172 -83 t-68 -232z"/>
<glyph unicode="e" horiz-adv-x="1138" d="M88 516q0 76 17 150t56 144t95 122.5t141 84.5t187 32q120 0 216.5 -46t153.5 -126q111 -150 111 -338v-105h-711q5 -98 71.5 -165.5t172.5 -67.5q158 0 250 159l205 -75q-132 -301 -469 -301q-102 0 -187 32t-141 84.5t-95 122t-56 143.5t-17 150zM360 635h445 q-43 196 -221 196q-88 0 -149 -56t-75 -140z"/>
<glyph unicode="f" horiz-adv-x="753" d="M66 815v217h131v53q0 180 93.5 272.5t262.5 92.5q115 0 192 -41l-55 -205q-72 29 -123 29q-116 0 -116 -129v-72h217v-217h-217v-815h-254v815h-131z"/>
<glyph unicode="g" horiz-adv-x="1054" d="M80 -94q0 127 84 205q-53 65 -53 159q0 140 127 217q-72 90 -72 213q0 158 108 252q111 97 271 97q104 0 190 -45l195 102l100 -168l-147 -74q41 -71 41 -164q0 -156 -109 -251q-110 -93 -270 -93q-73 0 -150 23q-49 -27 -49 -78q0 -76 96 -76h211q168 0 265.5 -79.5 t97.5 -223.5q0 -119 -72 -203q-130 -153 -397 -153q-207 0 -338 88q-129 88 -129 252zM315 -74q0 -71 62.5 -109t169.5 -38q215 0 215 127q0 106 -166 106h-139q-75 0 -119 8q-23 -38 -23 -94zM403 700q0 -61 40 -100t102 -39t101.5 39t39.5 100q0 63 -39.5 103.5 t-101.5 40.5t-102 -40.5t-40 -103.5z"/>
<glyph unicode="h" horiz-adv-x="1214" d="M164 0v1450h254v-584q115 183 327 183q152 0 237 -80t85 -232v-737h-254v647q0 184 -154 184q-103 0 -172 -104t-69 -291v-436h-254z"/>
<glyph unicode="i" horiz-adv-x="532" d="M103 1329q0 70 47 117t116.5 47t116.5 -47t47 -117t-47 -117t-116.5 -47t-116.5 47t-47 117zM139 0v1032h254v-1032h-254z"/>
<glyph unicode="j" horiz-adv-x="532" d="M-100 -211q126 32 182.5 99t56.5 200v944h254v-913q0 -239 -104 -370t-328 -183zM103 1329q0 70 47 117t116.5 47t116.5 -47t47 -117t-47 -117t-116.5 -47t-116.5 47t-47 117z"/>
<glyph unicode="k" horiz-adv-x="1099" d="M164 0v1450h254v-823l336 405h313l-414 -475l441 -557h-312l-364 487v-487h-254z"/>
<glyph unicode="l" horiz-adv-x="569" d="M160 0v1450h254v-1450h-254z"/>
<glyph unicode="m" horiz-adv-x="1773" d="M164 0v1032h254v-166q121 183 297 183q103 0 180.5 -55t108.5 -158q121 213 315 213q143 0 225 -84.5t82 -233.5v-731h-254v688q0 143 -127 143q-101 0 -162 -112.5t-61 -317.5v-401h-254v688q0 143 -127 143q-101 0 -162 -118t-61 -334v-379h-254z"/>
<glyph unicode="n" horiz-adv-x="1202" d="M164 0v1032h254v-166q127 183 319 183q146 0 232 -81.5t86 -230.5v-737h-254v662q0 169 -148 169q-101 0 -168 -114.5t-67 -304.5v-412h-254z"/>
<glyph unicode="o" horiz-adv-x="1224" d="M88 516q0 231 141 381q143 152 383 152t383 -152q142 -151 142 -381q0 -232 -142 -383q-140 -149 -383 -149t-383 149q-141 150 -141 383zM354 516q0 -134 70 -225q72 -90 188 -90q117 0 189 90q69 90 69 225q0 136 -69 223q-71 92 -189 92q-117 0 -188 -92 q-70 -88 -70 -223z"/>
<glyph unicode="p" horiz-adv-x="1226" d="M164 -418v1450h254v-106q27 48 97 85.5t153 37.5q225 0 348 -142.5t123 -390.5q0 -247 -123 -389.5t-348 -142.5q-73 0 -143 32t-107 78v-512h-254zM395 516q0 -149 66 -233q67 -82 172 -82q103 0 172 84q67 82 67 231q0 150 -67 232q-68 83 -172 83t-172 -83 q-66 -84 -66 -232z"/>
<glyph unicode="q" horiz-adv-x="1226" d="M88 516q0 248 123 390.5t348 142.5q83 0 153 -37.5t97 -85.5v106h254v-1450h-254v512q-37 -46 -107 -78t-143 -32q-225 0 -348 142.5t-123 389.5zM354 516q0 -148 68 -231q69 -84 172 -84q106 0 170 82q67 82 67 233q0 150 -67 232q-65 83 -170 83q-104 0 -172 -83 t-68 -232z"/>
<glyph unicode="r" horiz-adv-x="864" d="M164 0v1032h254v-168q56 88 135.5 136.5t169.5 48.5q58 0 125 -21l-47 -235q-48 28 -107 28q-127 0 -201.5 -113.5t-74.5 -340.5v-367h-254z"/>
<glyph unicode="s" horiz-adv-x="933" d="M74 262l202 109q62 -170 207 -170q127 0 127 110q0 53 -55 78q-27 15 -57 25q-19 9 -74.5 28.5t-71.5 26.5q-104 44 -156.5 109t-52.5 170q0 123 93 213q91 88 237 88q101 0 187.5 -46t136.5 -122l-152 -140q-72 90 -172 90q-40 0 -67 -23t-27 -63q0 -63 98 -100l74 -27 l88 -30q8 -3 74 -39q53 -27 73 -53q64 -72 64 -168q0 -142 -102 -244q-100 -100 -265 -100q-146 0 -256 84q-105 81 -153 194z"/>
<glyph unicode="t" horiz-adv-x="802" d="M37 815v217h160v258l254 160v-418h272v-217h-272v-446q0 -90 33 -129t102 -39q52 0 98 24l59 -205q-76 -36 -168 -36q-181 0 -279.5 97t-98.5 284v450h-160z"/>
<glyph unicode="u" horiz-adv-x="1202" d="M147 295v737h254v-661q0 -170 148 -170q101 0 168 114.5t67 305.5v411h254v-1032h-254v166q-126 -182 -319 -182q-146 0 -232 81t-86 230z"/>
<glyph unicode="v" horiz-adv-x="950" d="M10 1032h256l209 -719l209 719h256l-350 -1032h-230z"/>
<glyph unicode="w" horiz-adv-x="1568" d="M51 1032h256l185 -708l174 708h237l174 -708l185 708h256l-330 -1032h-225l-179 668l-178 -668h-225z"/>
<glyph unicode="x" horiz-adv-x="987" d="M16 0l342 551l-299 481h267l168 -268l168 268h266l-299 -481l342 -551h-266l-211 336l-211 -336h-267z"/>
<glyph unicode="y" horiz-adv-x="985" d="M6 1032h256l240 -647l225 647h254l-532 -1450h-246l178 484z"/>
<glyph unicode="z" horiz-adv-x="952" d="M84 0v98l446 717h-413v217h729v-98l-443 -717h471v-217h-790z"/>
<glyph unicode="{" horiz-adv-x="708" d="M115 606v221q93 0 128.5 35.5t35.5 128.5v340q0 92 56 148.5t148 56.5h181v-221h-56q-49 0 -66.5 -19t-17.5 -73v-305q0 -105 -36 -147.5t-115 -53.5q79 -11 115 -53.5t36 -147.5v-305q0 -54 17.5 -73t66.5 -19h56v-221h-181q-92 0 -148 56t-56 148v340q0 93 -35.5 128.5 t-128.5 35.5z"/>
<glyph unicode="|" horiz-adv-x="618" d="M184 -102v1638h250v-1638h-250z"/>
<glyph unicode="}" horiz-adv-x="708" d="M45 -102v221h55q49 0 66.5 19t17.5 73v305q0 104 36.5 147t115.5 54q-79 11 -115.5 54t-36.5 147v305q0 54 -17.5 73t-66.5 19h-55v221h180q92 0 148.5 -56.5t56.5 -148.5v-340q0 -93 35.5 -128.5t128.5 -35.5v-221q-93 0 -128.5 -35.5t-35.5 -128.5v-340 q0 -92 -56.5 -148t-148.5 -56h-180z"/>
<glyph unicode="~" horiz-adv-x="1339" d="M152 651q39 97 125.5 162.5t183.5 65.5q90 0 217 -62q127 -59 192 -59q105 0 187 104l131 -141q-39 -96 -125.5 -161.5t-183.5 -65.5q-90 0 -217 59q-125 61 -193 61q-104 0 -186 -104z"/>
<glyph unicode="¡" horiz-adv-x="737" d="M193 860q0 70 49 119t120 49q72 0 121 -49t49 -119q0 -72 -50 -122t-120 -50q-69 0 -119 50t-50 122zM195 -418l57 938h221l57 -938h-335z"/>
<glyph unicode="¢" horiz-adv-x="1193" d="M111 717q0 201 98.5 342t279.5 178v299h250v-299q250 -47 344 -283l-227 -92q-83 170 -242 170q-114 0 -175.5 -85t-61.5 -230t61.5 -230.5t175.5 -85.5q159 0 242 170l227 -92q-94 -235 -344 -282v-299h-250v299q-181 37 -279.5 178t-98.5 342z"/>
<glyph unicode="£" horiz-adv-x="1140" d="M76 139l110 109q44 50 77.5 119t33.5 135q0 54 -18 125h-170v237h98q-33 90 -33 160q0 186 119 305q121 121 317 121q158 0 267 -74t157 -209l-211 -100q-68 145 -213 145q-79 0 -130.5 -52t-51.5 -150q0 -80 16 -146h355v-237h-283q6 -37 6 -78q0 -111 -40.5 -186 t-125.5 -148q111 66 203 66q49 0 113 -31t108 -31q43 0 77 25t71 90l176 -111q-69 -123 -150.5 -181t-187.5 -58q-79 0 -164 36q-85 39 -147 39q-109 0 -238 -75z"/>
<glyph unicode="¤" horiz-adv-x="1167" d="M41 285l182 141q-51 92 -51 202.5t51 202.5l-182 142l199 198l141 -182q91 54 202.5 54t202.5 -54l142 182l198 -198l-182 -142q51 -92 51 -202.5t-51 -202.5l182 -141l-198 -199l-142 182q-91 -54 -202.5 -54t-202.5 54l-141 -182zM418 629q0 -81 43 -133 q47 -50 123 -50q77 0 121 50q45 51 45 133q0 83 -45 131q-42 51 -121 51q-78 0 -123 -51q-43 -49 -43 -131z"/>
<glyph unicode="¥" horiz-adv-x="1101" d="M16 1434h287l248 -557l248 557h286l-294 -603h186v-221h-293v-147h293v-221h-293v-242h-266v242h-293v221h293v147h-293v221h186z"/>
<glyph unicode="¦" horiz-adv-x="618" d="M184 -102v714h250v-714h-250zM184 821v715h250v-715h-250z"/>
<glyph unicode="§" horiz-adv-x="1124" d="M123 561q0 179 121 285q-51 86 -51 205q0 177 108 288t262 111q328 0 410 -309l-225 -74q-53 145 -185 145q-58 0 -91.5 -38t-33.5 -109q0 -69 70 -139q29 -26 117 -72l80 -41q74 -36 83 -41q216 -109 216 -317q0 -179 -121 -285q51 -86 51 -205q0 -177 -109 -289 q-107 -110 -262 -110q-327 0 -409 309l225 74q53 -146 184 -146q58 0 91.5 38.5t33.5 109.5q0 74 -72 139q-31 31 -116 72l-78 39l-84 43q-215 108 -215 317zM344 580q0 -71 84 -123q44 -27 82 -47l106 -50q54 -23 105 -49q61 49 61 125q0 71 -84 123q-44 27 -84 45 q-26 13 -104 50t-104 51q-62 -47 -62 -125z"/>
<glyph unicode="¨" horiz-adv-x="780" d="M33 1333.5q0 63.5 41 104.5t104.5 41t104.5 -41t41 -104.5t-41 -104.5t-104.5 -41t-104.5 41t-41 104.5zM457 1333.5q0 63.5 41 104.5t104.5 41t104.5 -41t41 -104.5t-41 -104.5t-104.5 -41t-104.5 41t-41 104.5z"/>
<glyph unicode="©" horiz-adv-x="1822" d="M123 717q0 338 225 569q227 230 563 230q338 0 562 -230q227 -230 227 -569q0 -340 -227 -570q-223 -229 -562 -229q-337 0 -563 229q-225 231 -225 570zM348 717q0 -252 158 -418q156 -164 405 -164q250 0 406 164q158 166 158 418t-158 418q-156 163 -406 163 q-249 0 -405 -163q-158 -166 -158 -418zM500 717q0 210 118 325q120 117 293 117q145 0 252 -76q106 -75 127 -213l-198 -39q-44 134 -181 134q-82 0 -134 -69.5t-52 -178.5t52 -178.5t134 -69.5q137 0 181 133l198 -39q-21 -138 -127 -213q-107 -76 -252 -76 q-173 0 -293 117q-118 115 -118 326z"/>
<glyph unicode="ª" horiz-adv-x="919" d="M119 852q0 121 95.5 193.5t250.5 72.5h135v35q0 119 -141 119q-108 0 -142 -94l-167 39q19 101 103 163t206 62q340 0 340 -340v-488h-166l-19 107q-100 -115 -249 -115q-107 0 -176.5 66.5t-69.5 179.5zM328 852q0 -34 22 -55t62 -21q76 0 132 48t56 120v23h-135 q-63 0 -100 -30.5t-37 -84.5z"/>
<glyph unicode="«" horiz-adv-x="1439" d="M90 551v168l633 446v-262l-379 -268l379 -268v-263zM705 551v168l632 446v-262l-379 -268l379 -268v-263z"/>
<glyph unicode="¬" horiz-adv-x="1220" d="M123 604v230h954v-543h-254v313h-700z"/>
<glyph unicode="­" horiz-adv-x="1030" d="M133 539v221h764v-221h-764z"/>
<glyph unicode="®" horiz-adv-x="1822" d="M123 717q0 338 225 569q227 230 563 230q338 0 562 -230q227 -230 227 -569q0 -340 -227 -570q-223 -229 -562 -229q-337 0 -563 229q-225 231 -225 570zM348 717q0 -252 158 -418q156 -164 405 -164q250 0 406 164q158 166 158 418t-158 418q-156 163 -406 163 q-249 0 -405 -163q-158 -166 -158 -418zM592 281v872h346q287 0 287 -250q0 -100 -47 -160.5t-131 -78.5l239 -383h-231l-224 372h-24v-372h-215zM807 823h111q98 0 98 80t-98 80h-111v-160z"/>
<glyph unicode="¯" horiz-adv-x="587" d="M18 1266v225h551v-225h-551z"/>
<glyph unicode="°" horiz-adv-x="745" d="M123 1214q0 105 72 177q71 71 178 71t178 -71q72 -72 72 -177q0 -106 -72 -178q-69 -69 -178 -69t-178 69q-72 72 -72 178zM293 1214.5q0 -36.5 20 -59.5q23 -23 60 -23t57 23q23 23 23 59.5t-23 59.5q-20 23 -57 23t-60 -23q-20 -23 -20 -59.5z"/>
<glyph unicode="±" horiz-adv-x="1210" d="M119 0v221h975v-221h-975zM119 707v221h377v377h221v-377h377v-221h-377v-377h-221v377h-377z"/>
<glyph unicode="²" horiz-adv-x="776" d="M109 614v72l297 363q55 64 55 139q0 40 -21 62t-57 22q-83 0 -104 -109l-164 47q12 103 87 167.5t181 64.5q122 0 195 -67.5t73 -182.5q0 -102 -82 -203l-168 -205h263v-170h-555z"/>
<glyph unicode="³" horiz-adv-x="794" d="M109 864l163 21q10 -53 42.5 -81t76.5 -28q101 0 101 121q0 53 -27 81t-72 28q-35 0 -76 -21l-81 102l135 177h-226v170h486v-72l-182 -234q99 0 166 -69t67 -168q0 -133 -74 -209t-213 -76q-121 0 -200.5 73t-85.5 185z"/>
<glyph unicode="´" horiz-adv-x="532" d="M31 1147l131 303h344l-281 -303h-194z"/>
<glyph unicode="µ" horiz-adv-x="1202" d="M147 -418v1450h254v-661q0 -170 148 -170q101 0 168 114.5t67 305.5v411h254v-1032h-254v166q-126 -182 -319 -182q-34 0 -64 6v-408h-254z"/>
<glyph unicode="¶" horiz-adv-x="1523" d="M111 969q0 192 135 327q138 138 329 138h826v-222h-127v-1630h-246v1630h-207v-1630h-246v922q-191 0 -329 135q-135 138 -135 330z"/>
<glyph unicode="·" horiz-adv-x="671" d="M164 754q0 74 49 123t123 49t123 -49t49 -123t-49 -123t-123 -49t-123 49t-49 123z"/>
<glyph unicode="¸" horiz-adv-x="493" d="M10 -410l289 287h184l-170 -422z"/>
<glyph unicode="¹" horiz-adv-x="626" d="M106 1106v194l281 134h76v-820h-182v570z"/>
<glyph unicode="º" horiz-adv-x="1069" d="M123 1024q0 183 110 299q110 119 302 119q191 0 301 -119q110 -116 110 -299q0 -182 -110 -301q-111 -117 -301 -117q-191 0 -302 117q-110 119 -110 301zM332 1024q0 -105 53 -176q57 -72 150 -72t147 72q55 70 55 176t-55 176q-54 72 -147 72t-150 -72 q-53 -71 -53 -176z"/>
<glyph unicode="»" horiz-adv-x="1439" d="M102 104v263l379 268l-379 268v262l633 -446v-168zM717 104v263l379 268l-379 268v262l633 -446v-168z"/>
<glyph unicode="¼" horiz-adv-x="1767" d="M143 1106v194l281 134h76v-820h-183v570zM268 41l1102 1470l148 -116l-1102 -1473zM991 133v92l330 594h195v-516h88v-170h-88v-133h-183v133h-342zM1204 303h129v250z"/>
<glyph unicode="½" horiz-adv-x="1880" d="M143 1106v194l281 134h76v-820h-183v570zM268 41l1102 1470l148 -116l-1102 -1473zM1161 0v72l297 362q55 64 55 139q0 41 -20.5 62.5t-56.5 21.5q-84 0 -105 -108l-164 47q12 102 87.5 166.5t181.5 64.5q122 0 195 -67t73 -182q0 -102 -82 -203l-168 -205h262v-170h-555 z"/>
<glyph unicode="¾" horiz-adv-x="1722" d="M109 864l163 21q10 -53 42.5 -81t76.5 -28q101 0 101 121q0 53 -27 81t-72 28q-35 0 -76 -21l-81 102l135 177h-226v170h486v-72l-182 -234q99 0 166 -69t67 -168q0 -133 -74 -209t-213 -76q-121 0 -200.5 73t-85.5 185zM313 41l1102 1470l148 -116l-1102 -1473zM997 133 v92l330 594h195v-516h88v-170h-88v-133h-183v133h-342zM1210 303h129v250z"/>
<glyph unicode="¿" horiz-adv-x="966" d="M98 -111q0 113 66 179q63 60 217 120q104 42 139 68.5t35 67.5q0 32 -21.5 51.5t-52.5 19.5q-82 0 -116 -94l-181 68q36 100 113 155.5t184 55.5q125 0 204 -73t79 -190q0 -183 -221 -266q-117 -44 -161 -81t-44 -89q0 -50 35.5 -76t97.5 -26q134 0 174 137l223 -37 q-25 -139 -130 -226t-261 -87q-172 0 -275.5 88t-103.5 235zM311 860q0 70 49.5 119t120.5 49t120.5 -49t49.5 -119q0 -72 -50.5 -122t-119.5 -50t-119.5 50t-50.5 122z"/>
<glyph unicode="À" horiz-adv-x="1257" d="M10 0l486 1434h266l485 -1434h-286l-105 338h-455l-104 -338h-287zM307 1851h344l131 -303h-194zM477 584h303l-151 497z"/>
<glyph unicode="Á" horiz-adv-x="1257" d="M10 0l486 1434h266l485 -1434h-286l-105 338h-455l-104 -338h-287zM453 1548l131 303h344l-281 -303h-194zM477 584h303l-151 497z"/>
<glyph unicode="Â" horiz-adv-x="1257" d="M10 0l486 1434h266l485 -1434h-286l-105 338h-455l-104 -338h-287zM244 1561l350 381h70l350 -381h-246l-139 151l-140 -151h-245zM477 584h303l-151 497z"/>
<glyph unicode="Ã" horiz-adv-x="1257" d="M10 0l486 1434h266l485 -1434h-286l-105 338h-455l-104 -338h-287zM236 1679q35 80 104 129.5t147 49.5q74 0 150 -43q77 -41 123 -41q67 0 131 88l133 -113q-35 -80 -104.5 -129t-147.5 -49q-72 0 -149 41q-76 43 -123 43q-67 0 -131 -88zM477 584h303l-151 497z"/>
<glyph unicode="Ä" horiz-adv-x="1257" d="M10 0l486 1434h266l485 -1434h-286l-105 338h-455l-104 -338h-287zM272 1734.5q0 63.5 41 104.5t104.5 41t104.5 -41t41 -104.5t-41 -104.5t-104.5 -41t-104.5 41t-41 104.5zM477 584h303l-151 497zM696 1734.5q0 63.5 41 104.5t104.5 41t104.5 -41t41 -104.5t-41 -104.5 t-104.5 -41t-104.5 41t-41 104.5z"/>
<glyph unicode="Å" horiz-adv-x="1257" d="M10 0l486 1434h266l485 -1434h-286l-105 338h-455l-104 -338h-287zM418 1743q0 90 59 149q60 60 152 60q91 0 151 -60t60 -149q0 -90 -60 -150q-59 -59 -151 -59q-93 0 -152 59t-59 150zM477 584h303l-151 497zM567 1743q0 -66 62 -66q61 0 61 66q0 65 -61 65 q-62 0 -62 -65z"/>
<glyph unicode="Æ" horiz-adv-x="1759" d="M16 0l627 1434h1010v-246h-621v-301h498v-246h-498v-395h641v-246h-907v338h-328l-135 -338h-287zM539 584h227v497h-27z"/>
<glyph unicode="Ç" horiz-adv-x="1433" d="M98 717q0 344 197 538q198 195 481 195q233 0 388 -113.5t206 -320.5l-240 -62q-95 250 -354 250q-177 0 -293 -125q-114 -126 -114 -362q0 -237 114 -363q116 -125 293 -125q259 0 354 250l240 -61q-51 -207 -206 -320.5t-388 -113.5q-284 0 -481 194t-197 539z M477 -410l289 287h184l-170 -422z"/>
<glyph unicode="È" horiz-adv-x="1177" d="M184 0v1434h887v-246h-620v-301h497v-246h-497v-395h641v-246h-908zM324 1851h344l131 -303h-195z"/>
<glyph unicode="É" horiz-adv-x="1177" d="M184 0v1434h887v-246h-620v-301h497v-246h-497v-395h641v-246h-908zM446 1548l132 303h344l-281 -303h-195z"/>
<glyph unicode="Ê" horiz-adv-x="1177" d="M184 0v1434h887v-246h-620v-301h497v-246h-497v-395h641v-246h-908zM254 1561l350 381h70l350 -381h-246l-139 151l-139 -151h-246z"/>
<glyph unicode="Ë" horiz-adv-x="1177" d="M184 0v1434h887v-246h-620v-301h497v-246h-497v-395h641v-246h-908zM285 1734.5q0 63.5 41 104.5t104.5 41t104.5 -41t41 -104.5t-41 -104.5t-104.5 -41t-104.5 41t-41 104.5zM709 1734.5q0 63.5 41 104.5t104 41t104 -41t41 -104.5t-41 -104.5t-104 -41t-104 41 t-41 104.5z"/>
<glyph unicode="Ì" horiz-adv-x="634" d="M-2 1851h344l131 -303h-194zM184 0v1434h267v-1434h-267z"/>
<glyph unicode="Í" horiz-adv-x="634" d="M162 1548l131 303h344l-281 -303h-194zM184 0v1434h267v-1434h-267z"/>
<glyph unicode="Î" horiz-adv-x="634" d="M-68 1561l351 381h69l350 -381h-245l-140 151l-139 -151h-246zM184 0v1434h267v-1434h-267z"/>
<glyph unicode="Ï" horiz-adv-x="634" d="M-39 1734.5q0 63.5 41 104.5t104.5 41t104.5 -41t41 -104.5t-41 -104.5t-104.5 -41t-104.5 41t-41 104.5zM184 0v1434h267v-1434h-267zM385 1734.5q0 63.5 41 104.5t104.5 41t104.5 -41t41 -104.5t-41 -104.5t-104.5 -41t-104.5 41t-41 104.5z"/>
<glyph unicode="Ð" horiz-adv-x="1449" d="M45 606v221h191v607h448q104 0 199.5 -26t181.5 -83t149.5 -139t100.5 -202.5t37 -266.5t-37 -266.5t-100.5 -202.5t-149.5 -139t-181.5 -83t-199.5 -26h-448v606h-191zM502 246h98q190 0 324 92q75 50 116 147.5t41 231.5t-41 231.5t-116 147.5q-134 92 -324 92h-98 v-361h190v-221h-190v-360z"/>
<glyph unicode="Ñ" horiz-adv-x="1441" d="M184 0v1434h281l526 -947v947h266v-1434h-280l-526 946v-946h-267zM315 1679q35 80 104.5 129.5t147.5 49.5q74 0 150 -43q77 -41 123 -41q67 0 131 88l133 -113q-35 -80 -104.5 -129t-147.5 -49q-73 0 -150 41q-76 43 -122 43q-67 0 -131 -88z"/>
<glyph unicode="Ò" d="M98 717q0 233 93 405.5t247 249.5q153 78 336 78q402 0 580 -324q96 -172 96 -409q0 -233 -93 -405t-247 -253q-147 -75 -336 -75q-397 0 -581 323q-95 170 -95 410zM369 717q0 -242 114 -365q117 -123 291 -123q175 0 289 123q117 123 117 365q0 241 -117 364 q-114 123 -289 123q-174 0 -291 -123q-114 -123 -114 -364zM434 1851h344l131 -303h-194z"/>
<glyph unicode="Ó" d="M98 717q0 233 93 405.5t247 249.5q153 78 336 78q402 0 580 -324q96 -172 96 -409q0 -233 -93 -405t-247 -253q-147 -75 -336 -75q-397 0 -581 323q-95 170 -95 410zM369 717q0 -242 114 -365q117 -123 291 -123q175 0 289 123q117 123 117 365q0 241 -117 364 q-114 123 -289 123q-174 0 -291 -123q-114 -123 -114 -364zM598 1548l131 303h344l-280 -303h-195z"/>
<glyph unicode="Ô" d="M98 717q0 233 93 405.5t247 249.5q153 78 336 78q402 0 580 -324q96 -172 96 -409q0 -233 -93 -405t-247 -253q-147 -75 -336 -75q-397 0 -581 323q-95 170 -95 410zM369 717q0 -242 114 -365q117 -123 291 -123q175 0 289 123q117 123 117 365q0 241 -117 364 q-114 123 -289 123q-174 0 -291 -123q-114 -123 -114 -364zM389 1561l350 381h70l350 -381h-246l-139 151l-139 -151h-246z"/>
<glyph unicode="Õ" d="M98 717q0 233 93 405.5t247 249.5q153 78 336 78q402 0 580 -324q96 -172 96 -409q0 -233 -93 -405t-247 -253q-147 -75 -336 -75q-397 0 -581 323q-95 170 -95 410zM369 717q0 -242 114 -365q117 -123 291 -123q175 0 289 123q117 123 117 365q0 241 -117 364 q-114 123 -289 123q-174 0 -291 -123q-114 -123 -114 -364zM381 1679q35 80 104.5 129.5t147.5 49.5q73 0 149 -43q77 -41 123 -41q67 0 131 88l133 -113q-35 -80 -104 -129t-147 -49q-73 0 -150 41q-76 43 -123 43q-67 0 -131 -88z"/>
<glyph unicode="Ö" d="M98 717q0 233 93 405.5t247 249.5q153 78 336 78q402 0 580 -324q96 -172 96 -409q0 -233 -93 -405t-247 -253q-147 -75 -336 -75q-397 0 -581 323q-95 170 -95 410zM369 717q0 -242 114 -365q117 -123 291 -123q175 0 289 123q117 123 117 365q0 241 -117 364 q-114 123 -289 123q-174 0 -291 -123q-114 -123 -114 -364zM418 1734.5q0 63.5 41 104.5t104.5 41t104.5 -41t41 -104.5t-41 -104.5t-104.5 -41t-104.5 41t-41 104.5zM842 1734.5q0 63.5 41 104.5t104.5 41t104.5 -41t41 -104.5t-41 -104.5t-104.5 -41t-104.5 41t-41 104.5z "/>
<glyph unicode="×" horiz-adv-x="1208" d="M123 326l326 323l-326 324l158 157l323 -325l324 325l157 -157l-325 -324l325 -323l-157 -158l-324 326l-323 -326z"/>
<glyph unicode="Ø" d="M98 717q0 239 95 409q184 324 581 324q202 0 359 -92l124 160l177 -129l-136 -175q152 -193 152 -497q0 -238 -96 -410q-178 -323 -580 -323q-201 0 -358 92l-125 -160l-176 129l135 174q-152 193 -152 498zM369 717q0 -162 55 -275l551 711q-86 51 -201 51 q-174 0 -291 -123q-114 -123 -114 -364zM573 281q88 -52 201 -52q175 0 289 123q117 123 117 365q0 159 -56 274z"/>
<glyph unicode="Ù" horiz-adv-x="1343" d="M137 545v889h266v-893q0 -312 269 -312q268 0 268 312v893h266v-889q0 -273 -141.5 -417t-392.5 -144t-393 144t-142 417zM344 1851h344l131 -303h-194z"/>
<glyph unicode="Ú" horiz-adv-x="1343" d="M137 545v889h266v-893q0 -312 269 -312q268 0 268 312v893h266v-889q0 -273 -141.5 -417t-392.5 -144t-393 144t-142 417zM520 1548l131 303h344l-280 -303h-195z"/>
<glyph unicode="Û" horiz-adv-x="1343" d="M137 545v889h266v-893q0 -312 269 -312q268 0 268 312v893h266v-889q0 -273 -141.5 -417t-392.5 -144t-393 144t-142 417zM287 1561l350 381h70l350 -381h-246l-139 151l-140 -151h-245z"/>
<glyph unicode="Ü" horiz-adv-x="1343" d="M137 545v889h266v-893q0 -312 269 -312q268 0 268 312v893h266v-889q0 -273 -141.5 -417t-392.5 -144t-393 144t-142 417zM315 1734.5q0 63.5 41 104.5t104.5 41t104.5 -41t41 -104.5t-41 -104.5t-104.5 -41t-104.5 41t-41 104.5zM739 1734.5q0 63.5 41 104.5t104.5 41 t104.5 -41t41 -104.5t-41 -104.5t-104.5 -41t-104.5 41t-41 104.5z"/>
<glyph unicode="Ý" horiz-adv-x="1093" d="M0 1434h287l260 -557l260 557h287l-414 -824v-610h-266v610zM391 1548l131 303h344l-280 -303h-195z"/>
<glyph unicode="Þ" horiz-adv-x="1212" d="M184 0v1434h267v-281h274q216 0 332.5 -117.5t116.5 -318.5t-116.5 -318.5t-332.5 -117.5h-274v-281h-267zM451 526h264q188 0 188 191q0 190 -188 190h-264v-381z"/>
<glyph unicode="ß" horiz-adv-x="1167" d="M66 668v229h106v127q0 201 111.5 313.5t300.5 112.5q184 0 286.5 -97.5t102.5 -265.5q0 -96 -46.5 -168t-117.5 -98q126 -33 202 -130t76 -242q0 -465 -456 -465q-67 0 -133 16v221q88 -16 129 -16q215 0 215 229q0 234 -246 234h-68v229h41q172 0 172 168 q0 79 -41.5 123.5t-115.5 44.5q-76 0 -121 -53t-45 -150v-1030h-246v668h-106z"/>
<glyph unicode="à" horiz-adv-x="1052" d="M78 297q0 153 121.5 245.5t318.5 92.5h172v45q0 151 -180 151q-138 0 -178 -118l-215 49q25 130 132 208.5t261 78.5q434 0 434 -433v-616h-209l-26 131q-120 -147 -318 -147q-140 0 -226.5 83.5t-86.5 229.5zM209 1450h344l131 -303h-195zM344 301q0 -43 29 -71.5 t78 -28.5q94 0 165 59q74 59 74 154v20h-170q-176 0 -176 -133z"/>
<glyph unicode="á" horiz-adv-x="1052" d="M78 297q0 153 121.5 245.5t318.5 92.5h172v45q0 151 -180 151q-138 0 -178 -118l-215 49q25 130 132 208.5t261 78.5q434 0 434 -433v-616h-209l-26 131q-120 -147 -318 -147q-140 0 -226.5 83.5t-86.5 229.5zM344 301q0 -43 29 -71.5t78 -28.5q94 0 165 59q74 59 74 154 v20h-170q-176 0 -176 -133zM354 1147l131 303h344l-280 -303h-195z"/>
<glyph unicode="â" horiz-adv-x="1052" d="M78 297q0 153 121.5 245.5t318.5 92.5h172v45q0 151 -180 151q-138 0 -178 -118l-215 49q25 130 132 208.5t261 78.5q434 0 434 -433v-616h-209l-26 131q-120 -147 -318 -147q-140 0 -226.5 83.5t-86.5 229.5zM139 1159l350 381h70l350 -381h-245l-140 152l-139 -152 h-246zM344 301q0 -43 29 -71.5t78 -28.5q94 0 165 59q74 59 74 154v20h-170q-176 0 -176 -133z"/>
<glyph unicode="ã" horiz-adv-x="1052" d="M78 297q0 153 121.5 245.5t318.5 92.5h172v45q0 151 -180 151q-138 0 -178 -118l-215 49q25 130 132 208.5t261 78.5q434 0 434 -433v-616h-209l-26 131q-120 -147 -318 -147q-140 0 -226.5 83.5t-86.5 229.5zM135 1278q35 80 104.5 129t147.5 49q74 0 150 -43 q77 -41 122 -41q68 0 132 88l133 -112q-35 -80 -104.5 -129.5t-147.5 -49.5q-73 0 -150 41q-76 43 -123 43q-67 0 -131 -88zM344 301q0 -43 29 -71.5t78 -28.5q94 0 165 59q74 59 74 154v20h-170q-176 0 -176 -133z"/>
<glyph unicode="ä" horiz-adv-x="1052" d="M78 297q0 153 121.5 245.5t318.5 92.5h172v45q0 151 -180 151q-138 0 -178 -118l-215 49q25 130 132 208.5t261 78.5q434 0 434 -433v-616h-209l-26 131q-120 -147 -318 -147q-140 0 -226.5 83.5t-86.5 229.5zM162 1333.5q0 63.5 41 104.5t104.5 41t104.5 -41t41 -104.5 t-41 -104.5t-104.5 -41t-104.5 41t-41 104.5zM344 301q0 -43 29 -71.5t78 -28.5q94 0 165 59q74 59 74 154v20h-170q-176 0 -176 -133zM586 1333.5q0 63.5 41 104.5t104.5 41t104.5 -41t41 -104.5t-41 -104.5t-104.5 -41t-104.5 41t-41 104.5z"/>
<glyph unicode="å" horiz-adv-x="1052" d="M78 297q0 153 121.5 245.5t318.5 92.5h172v45q0 151 -180 151q-138 0 -178 -118l-215 49q25 130 132 208.5t261 78.5q434 0 434 -433v-616h-209l-26 131q-120 -147 -318 -147q-140 0 -226.5 83.5t-86.5 229.5zM303 1341q0 91 59 150t152 59t152 -59t59 -150 q0 -90 -59 -149t-152 -59t-152 59t-59 149zM344 301q0 -43 29 -71.5t78 -28.5q94 0 165 59q74 59 74 154v20h-170q-176 0 -176 -133zM453 1341q0 -65 61 -65t61 65q0 66 -61 66t-61 -66z"/>
<glyph unicode="æ" horiz-adv-x="1740" d="M78 297q0 153 121.5 245.5t318.5 92.5h172v45q0 151 -180 151q-138 0 -178 -118l-215 49q25 130 132 208.5t261 78.5q233 0 340 -125q131 125 336 125q120 0 216.5 -46t153.5 -126q111 -150 111 -338v-105h-711q5 -98 71.5 -165.5t172.5 -67.5q158 0 250 159l205 -75 q-132 -301 -469 -301q-272 0 -410 215q-144 -215 -385 -215q-139 0 -226 84t-87 229zM344 301q0 -43 29 -71.5t78 -28.5q94 0 165 59q74 59 74 154v20h-170q-176 0 -176 -133zM961 635h446q-43 196 -221 196q-88 0 -149.5 -56.5t-75.5 -139.5z"/>
<glyph unicode="ç" horiz-adv-x="1128" d="M88 516q0 232 131 381q134 152 373 152q349 0 469 -295l-227 -92q-82 169 -242 169q-115 0 -176.5 -85.5t-61.5 -229.5t61.5 -229.5t176.5 -85.5q159 0 242 170l227 -92q-120 -295 -469 -295q-240 0 -373 151q-131 149 -131 381zM291 -410l289 287h184l-170 -422z"/>
<glyph unicode="è" horiz-adv-x="1138" d="M88 516q0 76 17 150t56 144t95 122.5t141 84.5t187 32q120 0 216.5 -46t153.5 -126q111 -150 111 -338v-105h-711q5 -98 71.5 -165.5t172.5 -67.5q158 0 250 159l205 -75q-132 -301 -469 -301q-102 0 -187 32t-141 84.5t-95 122t-56 143.5t-17 150zM246 1450h344 l131 -303h-195zM360 635h445q-43 196 -221 196q-88 0 -149 -56t-75 -140z"/>
<glyph unicode="é" horiz-adv-x="1138" d="M88 516q0 76 17 150t56 144t95 122.5t141 84.5t187 32q120 0 216.5 -46t153.5 -126q111 -150 111 -338v-105h-711q5 -98 71.5 -165.5t172.5 -67.5q158 0 250 159l205 -75q-132 -301 -469 -301q-102 0 -187 32t-141 84.5t-95 122t-56 143.5t-17 150zM360 635h445 q-43 196 -221 196q-88 0 -149 -56t-75 -140zM406 1147l131 303h344l-281 -303h-194z"/>
<glyph unicode="ê" horiz-adv-x="1138" d="M88 516q0 76 17 150t56 144t95 122.5t141 84.5t187 32q120 0 216.5 -46t153.5 -126q111 -150 111 -338v-105h-711q5 -98 71.5 -165.5t172.5 -67.5q158 0 250 159l205 -75q-132 -301 -469 -301q-102 0 -187 32t-141 84.5t-95 122t-56 143.5t-17 150zM199 1159l350 381h69 l351 -381h-246l-139 152l-140 -152h-245zM360 635h445q-43 196 -221 196q-88 0 -149 -56t-75 -140z"/>
<glyph unicode="ë" horiz-adv-x="1138" d="M88 516q0 76 17 150t56 144t95 122.5t141 84.5t187 32q120 0 216.5 -46t153.5 -126q111 -150 111 -338v-105h-711q5 -98 71.5 -165.5t172.5 -67.5q158 0 250 159l205 -75q-132 -301 -469 -301q-102 0 -187 32t-141 84.5t-95 122t-56 143.5t-17 150zM227 1333.5 q0 63.5 41 104.5t104.5 41t104.5 -41t41 -104.5t-41 -104.5t-104.5 -41t-104.5 41t-41 104.5zM360 635h445q-43 196 -221 196q-88 0 -149 -56t-75 -140zM651 1333.5q0 63.5 41 104.5t104.5 41t104.5 -41t41 -104.5t-41 -104.5t-104.5 -41t-104.5 41t-41 104.5z"/>
<glyph unicode="ì" horiz-adv-x="532" d="M-33 1450h344l131 -303h-194zM139 0v1032h254v-1032h-254z"/>
<glyph unicode="í" horiz-adv-x="532" d="M90 1147l131 303h344l-280 -303h-195zM139 0v1032h254v-1032h-254z"/>
<glyph unicode="î" horiz-adv-x="532" d="M-117 1159l350 381h70l350 -381h-245l-140 152l-139 -152h-246zM139 0v1032h254v-1032h-254z"/>
<glyph unicode="ï" horiz-adv-x="532" d="M-90 1333.5q0 63.5 41 104.5t104.5 41t104.5 -41t41 -104.5t-41 -104.5t-104.5 -41t-104.5 41t-41 104.5zM139 0v1032h254v-1032h-254zM334 1333.5q0 63.5 41 104.5t104.5 41t104.5 -41t41 -104.5t-41 -104.5t-104.5 -41t-104.5 41t-41 104.5z"/>
<glyph unicode="ð" horiz-adv-x="1196" d="M88 516q0 232 133 383q135 150 377 150q89 0 166 -41q-58 104 -168 182l-66 -96l-153 108l59 86q-104 54 -176 80l127 186q103 -45 172 -86l68 99l155 -107l-65 -96q200 -142 295.5 -335.5t95.5 -463.5q0 -263 -135 -422q-132 -159 -375 -159t-377 149q-133 151 -133 383 zM354 516q0 -139 65 -227t179 -88t179 88t65 227q-2 140 -66 227.5t-178 87.5t-179 -88t-65 -227z"/>
<glyph unicode="ñ" horiz-adv-x="1202" d="M164 0v1032h254v-166q127 183 319 183q146 0 232 -81.5t86 -230.5v-737h-254v662q0 169 -148 169q-101 0 -168 -114.5t-67 -304.5v-412h-254zM231 1278q35 80 104.5 129t147.5 49q74 0 150 -43q77 -41 123 -41q67 0 131 88l133 -112q-35 -80 -104.5 -129.5t-147.5 -49.5 q-73 0 -150 41q-76 43 -122 43q-67 0 -131 -88z"/>
<glyph unicode="ò" horiz-adv-x="1224" d="M88 516q0 231 141 381q143 152 383 152t383 -152q142 -151 142 -381q0 -232 -142 -383q-140 -149 -383 -149t-383 149q-141 150 -141 383zM293 1450h344l131 -303h-195zM354 516q0 -134 70 -225q72 -90 188 -90q117 0 189 90q69 90 69 225q0 136 -69 223q-71 92 -189 92 q-117 0 -188 -92q-70 -88 -70 -223z"/>
<glyph unicode="ó" horiz-adv-x="1224" d="M88 516q0 231 141 381q143 152 383 152t383 -152q142 -151 142 -381q0 -232 -142 -383q-140 -149 -383 -149t-383 149q-141 150 -141 383zM354 516q0 -134 70 -225q72 -90 188 -90q117 0 189 90q69 90 69 225q0 136 -69 223q-71 92 -189 92q-117 0 -188 -92 q-70 -88 -70 -223zM436 1147l131 303h344l-280 -303h-195z"/>
<glyph unicode="ô" horiz-adv-x="1224" d="M88 516q0 231 141 381q143 152 383 152t383 -152q142 -151 142 -381q0 -232 -142 -383q-140 -149 -383 -149t-383 149q-141 150 -141 383zM227 1159l351 381h69l350 -381h-245l-140 152l-139 -152h-246zM354 516q0 -134 70 -225q72 -90 188 -90q117 0 189 90 q69 90 69 225q0 136 -69 223q-71 92 -189 92q-117 0 -188 -92q-70 -88 -70 -223z"/>
<glyph unicode="õ" horiz-adv-x="1224" d="M88 516q0 231 141 381q143 152 383 152t383 -152q142 -151 142 -381q0 -232 -142 -383q-140 -149 -383 -149t-383 149q-141 150 -141 383zM219 1278q35 80 104.5 129t147.5 49q74 0 150 -43q77 -41 122 -41q67 0 131 88l134 -112q-35 -80 -104.5 -129.5t-147.5 -49.5 q-73 0 -150 41q-76 43 -123 43q-67 0 -131 -88zM354 516q0 -134 70 -225q72 -90 188 -90q117 0 189 90q69 90 69 225q0 136 -69 223q-71 92 -189 92q-117 0 -188 -92q-70 -88 -70 -223z"/>
<glyph unicode="ö" horiz-adv-x="1224" d="M88 516q0 231 141 381q143 152 383 152t383 -152q142 -151 142 -381q0 -232 -142 -383q-140 -149 -383 -149t-383 149q-141 150 -141 383zM256 1333.5q0 63.5 41 104.5t104.5 41t104.5 -41t41 -104.5t-41 -104.5t-104.5 -41t-104.5 41t-41 104.5zM354 516q0 -134 70 -225 q72 -90 188 -90q117 0 189 90q69 90 69 225q0 136 -69 223q-71 92 -189 92q-117 0 -188 -92q-70 -88 -70 -223zM680 1333.5q0 63.5 41 104.5t104.5 41t104.5 -41t41 -104.5t-41 -104.5t-104.5 -41t-104.5 41t-41 104.5z"/>
<glyph unicode="÷" horiz-adv-x="1146" d="M86 535v221h975v-221h-975zM402 254q0 74 49 123t122 49t123 -49t50 -123t-50 -123t-123 -49t-122 49t-49 123zM402 1036q0 74 49 123t122 49t123 -49t50 -123t-50 -123t-123 -49t-122 49t-49 123z"/>
<glyph unicode="ø" horiz-adv-x="1224" d="M74 6l127 162q-113 140 -113 348q0 231 141 381q143 152 383 152q131 0 240 -50l123 156l176 -129l-127 -162q113 -140 113 -348q0 -232 -142 -383q-140 -149 -383 -149q-132 0 -239 49l-123 -156zM354 516q0 -72 21 -127l332 424q-43 18 -95 18q-117 0 -188 -92 q-70 -88 -70 -223zM518 219q43 -18 94 -18q117 0 189 90q69 90 69 225q0 74 -20 127z"/>
<glyph unicode="ù" horiz-adv-x="1202" d="M147 295v737h254v-661q0 -170 148 -170q101 0 168 114.5t67 305.5v411h254v-1032h-254v166q-126 -182 -319 -182q-146 0 -232 81t-86 230zM248 1450h344l131 -303h-195z"/>
<glyph unicode="ú" horiz-adv-x="1202" d="M147 295v737h254v-661q0 -170 148 -170q101 0 168 114.5t67 305.5v411h254v-1032h-254v166q-126 -182 -319 -182q-146 0 -232 81t-86 230zM455 1147l131 303h344l-281 -303h-194z"/>
<glyph unicode="û" horiz-adv-x="1202" d="M147 295v737h254v-661q0 -170 148 -170q101 0 168 114.5t67 305.5v411h254v-1032h-254v166q-126 -182 -319 -182q-146 0 -232 81t-86 230zM211 1159l350 381h70l350 -381h-246l-139 152l-139 -152h-246z"/>
<glyph unicode="ü" horiz-adv-x="1202" d="M147 295v737h254v-661q0 -170 148 -170q101 0 168 114.5t67 305.5v411h254v-1032h-254v166q-126 -182 -319 -182q-146 0 -232 81t-86 230zM254 1333.5q0 63.5 41 104.5t104.5 41t104.5 -41t41 -104.5t-41 -104.5t-104.5 -41t-104.5 41t-41 104.5zM678 1333.5 q0 63.5 41 104.5t104.5 41t104.5 -41t41 -104.5t-41 -104.5t-104.5 -41t-104.5 41t-41 104.5z"/>
<glyph unicode="ý" horiz-adv-x="985" d="M6 1032h256l240 -647l225 647h254l-532 -1450h-246l178 484zM342 1147l131 303h344l-280 -303h-195z"/>
<glyph unicode="þ" horiz-adv-x="1226" d="M164 -418v1868h254v-512q37 46 107 78.5t143 32.5q225 0 348 -142.5t123 -390.5q0 -247 -123 -389.5t-348 -142.5q-83 0 -153 37t-97 85v-524h-254zM395 516q0 -149 66 -233q67 -82 172 -82q103 0 172 84q67 82 67 231q0 150 -67 232q-68 83 -172 83t-172 -83 q-66 -84 -66 -232z"/>
<glyph unicode="ÿ" horiz-adv-x="985" d="M6 1032h256l240 -647l225 647h254l-532 -1450h-246l178 484zM141 1333.5q0 63.5 41 104.5t104.5 41t104.5 -41t41 -104.5t-41 -104.5t-104.5 -41t-104.5 41t-41 104.5zM565 1333.5q0 63.5 41 104.5t104.5 41t104.5 -41t41 -104.5t-41 -104.5t-104.5 -41t-104.5 41 t-41 104.5z"/>
<glyph unicode="Œ" horiz-adv-x="2174" d="M98 717q0 239 95 409q184 324 581 324q240 0 408 -125v109h886v-246h-620v-301h498v-246h-498v-395h641v-246h-907v106q-171 -122 -408 -122q-189 0 -336 75q-154 81 -247 253t-93 405zM369 717q0 -242 114 -365q117 -123 291 -123t291 123t117 365q0 241 -117 364 t-291 123t-291 -123q-114 -123 -114 -364z"/>
<glyph unicode="œ" horiz-adv-x="1921" d="M88 516q0 231 141 381q143 152 383 152q245 0 389 -156q135 156 365 156q121 0 217.5 -46t153.5 -126q110 -149 110 -338v-105h-710q5 -98 71 -165.5t172 -67.5q158 0 250 159l205 -75q-132 -301 -469 -301q-233 0 -367 155q-143 -155 -387 -155q-243 0 -383 149 q-141 150 -141 383zM354 516q0 -134 70 -225q72 -90 188 -90q117 0 189 90q69 90 69 225q0 131 -71 223t-187 92q-117 0 -188 -92q-70 -88 -70 -223zM1143 635h444q-43 196 -221 196q-88 0 -148.5 -55.5t-74.5 -140.5z"/>
<glyph unicode="Ÿ" horiz-adv-x="1093" d="M0 1434h287l260 -557l260 557h287l-414 -824v-610h-266v610zM190 1734.5q0 63.5 41 104.5t104.5 41t104.5 -41t41 -104.5t-41 -104.5t-104.5 -41t-104.5 41t-41 104.5zM614 1734.5q0 63.5 41 104.5t104.5 41t104.5 -41t41 -104.5t-41 -104.5t-104.5 -41t-104.5 41 t-41 104.5z"/>
<glyph unicode="ˆ" horiz-adv-x="876" d="M53 1159l350 381h70l350 -381h-245l-140 152l-139 -152h-246z"/>
<glyph unicode="˜" horiz-adv-x="849" d="M31 1278q35 80 104.5 129t147.5 49q73 0 149 -43q77 -41 123 -41q67 0 131 88l133 -112q-35 -80 -104.5 -129.5t-147.5 -49.5q-72 0 -149 41q-76 43 -123 43q-67 0 -131 -88z"/>
<glyph unicode=" " horiz-adv-x="976"/>
<glyph unicode=" " horiz-adv-x="1952"/>
<glyph unicode=" " horiz-adv-x="976"/>
<glyph unicode=" " horiz-adv-x="1952"/>
<glyph unicode=" " horiz-adv-x="650"/>
<glyph unicode=" " horiz-adv-x="488"/>
<glyph unicode=" " horiz-adv-x="325"/>
<glyph unicode=" " horiz-adv-x="325"/>
<glyph unicode=" " horiz-adv-x="244"/>
<glyph unicode=" " horiz-adv-x="390"/>
<glyph unicode=" " horiz-adv-x="108"/>
<glyph unicode="‐" horiz-adv-x="1030" d="M133 539v221h764v-221h-764z"/>
<glyph unicode="‑" horiz-adv-x="1030" d="M133 539v221h764v-221h-764z"/>
<glyph unicode="‒" horiz-adv-x="1030" d="M133 539v221h764v-221h-764z"/>
<glyph unicode="–" horiz-adv-x="1198" d="M133 539v221h932v-221h-932z"/>
<glyph unicode="—" horiz-adv-x="1579" d="M133 539v221h1313v-221h-1313z"/>
<glyph unicode="‘" horiz-adv-x="684" d="M102 1450h334l160 -500h-188z"/>
<glyph unicode="’" horiz-adv-x="684" d="M88 950l160 500h334l-306 -500h-188z"/>
<glyph unicode="‚" horiz-adv-x="684" d="M88 -29l160 500h334l-306 -500h-188z"/>
<glyph unicode="“" horiz-adv-x="1134" d="M102 1450h334l160 -500h-188zM553 1450h334l160 -500h-189z"/>
<glyph unicode="”" horiz-adv-x="1134" d="M88 950l160 500h334l-306 -500h-188zM539 950l159 500h334l-305 -500h-188z"/>
<glyph unicode="„" horiz-adv-x="1134" d="M88 -29l160 500h334l-306 -500h-188zM539 -29l159 500h334l-305 -500h-188z"/>
<glyph unicode="•" horiz-adv-x="802" d="M160 676q0 101 69 170q72 72 172 72q98 0 170 -72t72 -170q0 -100 -72 -172q-70 -70 -170 -70q-102 0 -172 70q-69 69 -69 172z"/>
<glyph unicode="…" horiz-adv-x="1990" d="M164 160q0 74 49 123t123 49t123 -49t49 -123t-49 -123t-123 -49t-123 49t-49 123zM822 160q0 74 50 123t123 49t123 -49t50 -123t-50 -123t-123 -49t-123 49t-50 123zM1482 160q0 74 50 123t123 49t123 -49t50 -123t-50 -123t-123 -49t-123 49t-50 123z"/>
<glyph unicode=" " horiz-adv-x="390"/>
<glyph unicode="‹" horiz-adv-x="825" d="M90 551v168l633 446v-262l-379 -268l379 -268v-263z"/>
<glyph unicode="›" horiz-adv-x="825" d="M102 104v263l379 268l-379 268v262l633 -446v-168z"/>
<glyph unicode=" " horiz-adv-x="488"/>
<glyph unicode="€" horiz-adv-x="1318" d="M51 442l103 222h79v106h-182l103 221h102q50 220 195 339.5t352 119.5q313 0 442 -240l-221 -131q-71 133 -221 133q-222 0 -287 -221h430l-102 -221h-357v-106h459l-102 -222h-328q65 -221 287 -221q150 0 221 133l221 -131q-128 -239 -442 -239q-207 0 -352 119 t-195 339h-205z"/>
<glyph unicode="™" horiz-adv-x="1744" d="M47 1249v185h625v-185h-213v-635h-199v635h-213zM795 614v820h198l199 -478l199 478h198v-820h-198v396l-134 -320h-131l-133 320v-396h-198z"/>
<glyph unicode="" horiz-adv-x="1034" d="M0 0v1034h1034v-1034h-1034z"/>
</font>
</defs>
</svg>
