<?xml version="1.0" standalone="no"?>
<!DOCTYPE svg PUBLIC "-//W3C//DTD SVG 1.1//EN" "http://www.w3.org/Graphics/SVG/1.1/DTD/svg11.dtd" >
<svg xmlns="http://www.w3.org/2000/svg">
<metadata></metadata>
<defs>
<font id="aperculight" horiz-adv-x="1196" >
<font-face units-per-em="2048" ascent="1638" descent="-410" />
<missing-glyph horiz-adv-x="516" />
<glyph unicode="&#xfb01;" horiz-adv-x="1101" d="M102 913v119h164v33q0 178 115 281q116 104 287 104q130 0 225 -59l-27 -117q-99 57 -209 57q-118 0 -191 -68.5t-73 -177.5v-53h541v-1032h-127v913h-414v-913h-127v913h-164z" />
<glyph unicode="&#xfb02;" horiz-adv-x="1189" d="M102 913v119h160v66q0 352 320 352h428v-1450h-127v1331h-312q-182 0 -182 -213v-86h250v-119h-250v-913h-127v913h-160z" />
<glyph horiz-adv-x="0" />
<glyph horiz-adv-x="0" />
<glyph horiz-adv-x="682" />
<glyph unicode="&#xd;" horiz-adv-x="681" />
<glyph unicode=" "  horiz-adv-x="516" />
<glyph unicode="&#x09;" horiz-adv-x="516" />
<glyph unicode="&#xa0;" horiz-adv-x="516" />
<glyph unicode="!" horiz-adv-x="665" d="M225 108q0 49 31 80q32 32 81.5 32t80.5 -32q32 -31 32 -80t-32 -81q-31 -31 -80.5 -31t-81.5 31q-31 32 -31 81zM252 1434h172l-45 -1057h-82z" />
<glyph unicode="&#x22;" horiz-adv-x="856" d="M186 1450h183l-43 -467h-97zM487 1450h183l-43 -467h-97z" />
<glyph unicode="#" horiz-adv-x="1468" d="M158 438v111h264l67 336h-249v110h274l88 439h115l-88 -439h325l90 439h115l-90 -439h242v-110h-264l-68 -336h250v-111h-275l-88 -438h-114l88 438h-326l-90 -438h-115l90 438h-241zM537 549h327l68 336h-328z" />
<glyph unicode="$" horiz-adv-x="1036" d="M86 371l117 69q46 -165 119.5 -247t201.5 -82q124 0 196.5 75.5t72.5 212.5q0 175 -220 277q-152 70 -210 107q-176 114 -188 283q-1 15 -1 32q0 141 82 235q86 98 207 113v172h123v-174q97 -13 154.5 -62t115.5 -153l-111 -70q-86 164 -237 164q-90 0 -144.5 -61.5 t-54.5 -147.5q0 -166 221 -268q98 -44 183 -88q98 -47 159.5 -139t61.5 -216q0 -171 -96 -285t-252 -134v-168h-123v168q-147 18 -245.5 121.5t-131.5 265.5z" />
<glyph unicode="%" horiz-adv-x="1728" d="M127 1122q0 136 90 232q93 96 232 96t229 -96q92 -95 92 -232q0 -138 -92 -233q-88 -94 -229 -94t-232 94q-90 96 -90 233zM238 1122q0 -95 57 -155q59 -62 154 -62q94 0 153 62q57 60 57 155q0 96 -57 156q-58 61 -153 61q-96 0 -154 -61q-57 -60 -57 -156zM266 18 l1110 1465l86 -68l-1110 -1464zM958 311q0 135 91 232q93 96 231 96q139 0 229 -96q93 -96 93 -232q0 -137 -93 -233q-88 -94 -229 -94q-140 0 -231 94q-91 97 -91 233zM1069 311q0 -95 57 -155q59 -62 154 -62t154 62q57 60 57 155q0 96 -57 156q-58 61 -154 61t-154 -61 q-57 -60 -57 -156z" />
<glyph unicode="&#x26;" horiz-adv-x="1345" d="M162 397q0 151 79 264.5t205 178.5q-135 184 -135 305q0 139 88.5 222t221.5 83q142 0 227.5 -79.5t85.5 -207.5q0 -209 -303 -364l334 -428q49 92 108 262l88 -103q-55 -154 -117 -262l211 -268h-147l-133 168q-150 -184 -395 -184q-191 0 -304.5 110t-113.5 303z M289 393q0 -130 81 -210.5t210 -80.5q194 0 317 164l-377 482q-231 -126 -231 -355zM438 1137q0 -94 119 -246q133 65 191.5 124.5t58.5 137.5q0 82 -49 134t-137 52q-85 0 -134 -53t-49 -149z" />
<glyph unicode="'" horiz-adv-x="555" d="M186 1450h183l-43 -467h-97z" />
<glyph unicode="(" horiz-adv-x="575" d="M145 717q0 458 224 819h135q-217 -353 -217 -819t217 -819h-135q-224 361 -224 819z" />
<glyph unicode=")" horiz-adv-x="575" d="M72 -102q217 353 217 819t-217 819h135q223 -360 223 -819t-223 -819h-135z" />
<glyph unicode="*" horiz-adv-x="1007" d="M125 1135l37 110l284 -94v299h115v-299l285 94l37 -110l-285 -97l176 -237l-94 -70l-176 240l-176 -240l-95 70l177 237z" />
<glyph unicode="+" horiz-adv-x="1116" d="M141 590v115h363v360h114v-360h363v-115h-363v-363h-114v363h-363z" />
<glyph unicode="," horiz-adv-x="571" d="M135 -158l103 338h188l-197 -338h-94z" />
<glyph unicode="-" horiz-adv-x="964" d="M145 592v115h674v-115h-674z" />
<glyph unicode="." horiz-adv-x="581" d="M186 100q0 44 30.5 74.5t74.5 30.5t74 -30.5t30 -74.5t-30 -74t-74 -30q-45 0 -75 29t-30 75z" />
<glyph unicode="/" horiz-adv-x="1079" d="M35 -102l893 1638h135l-893 -1638h-135z" />
<glyph unicode="0" horiz-adv-x="1261" d="M137 717q0 339 125 534q126 199 369 199q240 0 366 -199q127 -198 127 -534t-127 -537q-126 -196 -366 -196q-243 0 -369 196q-125 198 -125 537zM268 717q0 -275 97 -449q95 -170 266 -170t266 170q96 172 96 449q0 276 -96 448q-95 170 -266 170t-266 -170 q-97 -174 -97 -448z" />
<glyph unicode="1" horiz-adv-x="708" d="M145 1067v156l332 211h33v-1434h-127v1217z" />
<glyph unicode="2" horiz-adv-x="1165" d="M154 0v47l522 676q101 128 129 192q31 70 31 158q0 122 -68 192t-186 70q-109 0 -184.5 -79.5t-94.5 -208.5l-119 22q14 163 125 274q107 107 273 107q173 0 279 -102t106 -279q0 -164 -174 -387l-439 -567h647v-115h-847z" />
<glyph unicode="3" horiz-adv-x="1173" d="M129 393l127 19q18 -146 98.5 -230t214.5 -84q154 0 238 90t84 250q0 165 -84 253.5t-238 88.5q-69 0 -127 -37l-61 80l371 496h-551v115h749v-35l-387 -514q18 6 53 6q165 0 285 -123q121 -121 121 -330q0 -203 -123 -329q-119 -125 -330 -125q-180 0 -300 109.5 t-140 299.5z" />
<glyph unicode="4" horiz-adv-x="1191" d="M121 330v35l604 1069h156v-990h190v-114h-190v-330h-127v330h-633zM301 444h453v809z" />
<glyph unicode="5" horiz-adv-x="1153" d="M147 377l125 22q40 -301 295 -301q152 0 232 97.5t80 271.5q0 181 -81.5 275t-230.5 94q-181 0 -295 -193l-90 21l74 770h670v-115h-555l-52 -488q110 119 261 119q198 0 314 -130t116 -353q0 -216 -119 -350q-121 -133 -324 -133q-174 0 -285 100.5t-135 292.5z" />
<glyph unicode="6" horiz-adv-x="1175" d="M160 451q0 130 76 264l423 735h134l-320 -567q47 35 133 35q195 0 322 -136q125 -131 125 -331t-125 -334q-127 -133 -322 -133q-194 0 -321 133q-125 134 -125 334zM291 451q0 -153 88 -254q89 -99 227 -99q136 0 225 99q91 105 91 254q0 160 -87.5 256t-228.5 96 t-228 -96t-87 -256z" />
<glyph unicode="7" horiz-adv-x="978" d="M121 1319v115h794v-41l-567 -1393h-133l549 1319h-643z" />
<glyph unicode="8" horiz-adv-x="1183" d="M162 401q0 129 64.5 231.5t164.5 139.5q-81 43 -130.5 123t-49.5 182q0 168 104 269q107 104 277 104t274 -104q107 -101 107 -269q0 -102 -49.5 -182t-130.5 -123q100 -37 164.5 -139.5t64.5 -231.5q0 -197 -125 -307q-122 -110 -305 -110q-182 0 -307 110 q-123 111 -123 307zM293 401q0 -140 81.5 -221.5t217.5 -81.5q137 0 218 81.5t81 221.5t-81.5 222t-217.5 82t-217.5 -82t-81.5 -222zM338 1077q0 -118 70 -188t184 -70t184 70t70 188q0 117 -70 187q-71 71 -184 71t-184 -71q-70 -70 -70 -187z" />
<glyph unicode="9" horiz-adv-x="1161" d="M145 983q0 201 125 332q126 135 322 135q195 0 321 -135q125 -131 125 -332q0 -132 -75 -264l-424 -735h-133l319 567q-47 -35 -133 -35q-195 0 -322 133q-125 134 -125 334zM276 983q0 -160 87.5 -256t228.5 -96t228 96t87 256q0 151 -90 252q-87 100 -225 100 q-140 0 -227 -100q-89 -100 -89 -252z" />
<glyph unicode=":" horiz-adv-x="610" d="M201 100q0 33 19 59t46 37.5t58.5 6.5t54.5 -29q24 -23 29 -54.5t-6.5 -58.5t-37.5 -46t-59 -19q-47 0 -75.5 28.5t-28.5 75.5zM201 850q0 33 19 59t46 37.5t58.5 6.5t54.5 -29q24 -23 29 -54.5t-6.5 -58.5t-37.5 -46.5t-59 -19.5q-47 0 -75.5 29t-28.5 76z" />
<glyph unicode=";" horiz-adv-x="610" d="M125 -158l102 338h189l-197 -338h-94zM201 850q0 33 19 59t46 37.5t58.5 6.5t54.5 -29q24 -23 29 -54.5t-6.5 -58.5t-37.5 -46.5t-59 -19.5q-47 0 -75.5 29t-28.5 76z" />
<glyph unicode="&#x3c;" horiz-adv-x="925" d="M115 565v140l684 368v-127l-580 -311l580 -311v-127z" />
<glyph unicode="=" horiz-adv-x="1210" d="M209 408v114h792v-114h-792zM209 748v114h792v-114h-792z" />
<glyph unicode="&#x3e;" horiz-adv-x="925" d="M127 197v127l580 311l-580 311v127l684 -368v-140z" />
<glyph unicode="?" horiz-adv-x="897" d="M102 1145q25 144 122 224.5t253 80.5q140 0 229 -80t89 -207q0 -159 -179 -254l-147 -80q-72 -38 -102.5 -79.5t-30.5 -102.5q0 -57 33 -91t90 -34q62 0 100.5 31.5t61.5 103.5l102 -39q-59 -215 -260 -215q-110 0 -182 65.5t-72 182.5q0 164 180 262l168 93 q107 58 107 151q0 82 -52.5 128t-148.5 46q-179 0 -232 -209zM354 108q0 49 31 80q32 32 81.5 32t80.5 -32q32 -31 32 -80t-32 -81q-31 -31 -80.5 -31t-81.5 31q-31 32 -31 81z" />
<glyph unicode="@" horiz-adv-x="1765" d="M104 616q0 204 67 371.5t185 272.5q236 210 557 210q333 0 539 -194q205 -193 205 -555q0 -243 -96 -371.5t-254 -128.5q-83 0 -142.5 45.5t-79.5 114.5q-106 -160 -276 -160q-164 0 -255 103.5t-91 279.5q0 194 119 322q119 131 305 131q78 0 139 -34.5t90 -94.5l29 114 h110l-49 -542q-1 -14 -2 -25t-1.5 -16t-0.5 -6q0 -117 113 -117q101 0 155 102.5t54 282.5q0 301 -162.5 468t-458.5 167q-100 -1 -196.5 -32t-181.5 -93.5t-149.5 -149.5t-101.5 -207t-36 -258q0 -324 186 -510q187 -184 477 -184q138 0 252.5 31.5t251.5 109.5l45 -102 q-155 -83 -279 -119q-119 -35 -270 -35q-345 0 -571 218t-226 591zM598 598q0 -126 59.5 -194t165.5 -68q125 0 195 102q74 103 74 242q0 122 -58 192t-162 70q-123 0 -198.5 -97t-75.5 -247z" />
<glyph unicode="A" d="M20 0l519 1434h118l519 -1434h-140l-143 408h-590l-143 -408h-140zM346 535h504l-252 714z" />
<glyph unicode="B" horiz-adv-x="1261" d="M207 0v1434h461q189 0 294 -97.5t105 -271.5q0 -91 -52 -169.5t-128 -111.5q118 -43 186 -136t68 -234q0 -189 -119.5 -301.5t-321.5 -112.5h-493zM342 127h332q165 0 245 68t80 219t-80 218.5t-245 67.5h-332v-573zM342 827h326q260 0 260 240t-260 240h-326v-480z" />
<glyph unicode="C" horiz-adv-x="1392" d="M121 717q0 178 52 321.5t144 231.5q186 180 437 180q201 0 342.5 -109t197.5 -301l-133 -39q-42 155 -145.5 238.5t-261.5 83.5q-221 0 -357 -160q-135 -159 -135 -446q0 -288 135 -447t357 -159q158 0 261.5 83t145.5 238l133 -39q-56 -192 -197.5 -300.5t-342.5 -108.5 q-262 0 -449 190q-184 190 -184 543z" />
<glyph unicode="D" horiz-adv-x="1355" d="M207 0v1434h377q281 0 467 -195q184 -193 184 -522q0 -331 -184 -524t-467 -193h-377zM342 127h244q217 0 360 149q148 151 148 441q0 289 -148 440q-144 150 -360 150h-244v-1180z" />
<glyph unicode="E" horiz-adv-x="1163" d="M207 0v1434h809v-127h-674v-480h551v-127h-551v-573h694v-127h-829z" />
<glyph unicode="F" horiz-adv-x="1153" d="M207 0v1434h823v-127h-688v-496h565v-127h-565v-684h-135z" />
<glyph unicode="G" horiz-adv-x="1449" d="M121 717q0 347 184 540t445 193q209 0 354 -110.5t199 -307.5l-134 -37q-50 159 -157 243.5t-262 84.5q-219 0 -355 -160q-133 -160 -133 -446q0 -287 133 -447q135 -159 355 -159q205 0 315 124t111 361h-332v127h467v-723h-119l-16 221q-57 -110 -171 -173.5 t-255 -63.5q-262 0 -445 192q-184 193 -184 541z" />
<glyph unicode="H" horiz-adv-x="1413" d="M207 0v1434h135v-609h729v609h135v-1434h-135v698h-729v-698h-135z" />
<glyph unicode="I" horiz-adv-x="548" d="M207 0v1434h135v-1434h-135z" />
<glyph unicode="J" horiz-adv-x="1017" d="M31 350l139 31q40 -270 266 -270q123 0 196 75.5t73 219.5v1028h135v-1014q0 -206 -119 -322q-117 -114 -285 -114q-181 0 -282 104q-102 108 -123 262z" />
<glyph unicode="K" horiz-adv-x="1157" d="M207 0v1434h135v-613l559 613h172l-588 -643l639 -791h-166l-616 760v-760h-135z" />
<glyph unicode="L" horiz-adv-x="1054" d="M207 0v1434h135v-1307h672v-127h-807z" />
<glyph unicode="M" horiz-adv-x="1601" d="M207 0v1434h168l426 -1080l426 1080h168v-1434h-135v1171l-416 -1040h-86l-416 1040v-1171h-135z" />
<glyph unicode="N" horiz-adv-x="1419" d="M207 0v1434h160l710 -1219v1219h135v-1434h-159l-711 1214v-1214h-135z" />
<glyph unicode="O" horiz-adv-x="1499" d="M121 717q0 330 182 530q185 203 447 203t444 -203q184 -199 184 -530t-184 -533q-182 -200 -444 -200t-447 200q-182 203 -182 533zM262 717q0 -291 137 -449q139 -157 351 -157q209 0 348 157q139 160 139 449t-139 446q-139 160 -348 160q-212 0 -351 -160 q-137 -155 -137 -446z" />
<glyph unicode="P" horiz-adv-x="1183" d="M207 0v1434h487q192 0 303 -106t111 -290t-111 -289.5t-303 -105.5h-352v-643h-135zM342 770h354q136 0 203.5 70.5t67.5 197.5t-67.5 198t-203.5 71h-354v-537z" />
<glyph unicode="Q" horiz-adv-x="1499" d="M121 717q0 330 182 530q185 203 447 203t444 -203q184 -199 184 -530q0 -310 -161 -506l137 -135l-92 -92l-136 135q-164 -135 -376 -135q-262 0 -447 200q-182 203 -182 533zM262 717q0 -291 137 -449q139 -157 351 -157q164 0 286 96l-151 153l92 93l147 -150 q113 162 113 414q0 289 -139 446q-139 160 -348 160q-212 0 -351 -160q-137 -155 -137 -446z" />
<glyph unicode="R" horiz-adv-x="1302" d="M207 0v1434h461q197 0 303 -92.5t106 -270.5q0 -154 -81 -245t-232 -111l446 -715h-151l-449 709h-268v-709h-135zM342 836h317q281 0 281 235q0 236 -281 236h-317v-471z" />
<glyph unicode="S" horiz-adv-x="1036" d="M86 371l117 69q46 -165 119.5 -247t201.5 -82q124 0 196.5 75.5t72.5 212.5q0 175 -220 277q-152 70 -210 107q-176 114 -188 283q-1 15 -1 32q0 153 96 254q98 98 238 98q101 0 168 -33q67 -30 100 -67.5t80 -120.5l-111 -70q-86 164 -237 164q-90 0 -144.5 -61.5 t-54.5 -147.5q0 -166 221 -268q98 -44 183 -88q98 -47 159.5 -139t61.5 -216q0 -191 -117 -305q-114 -114 -293 -114q-170 0 -285 105t-153 282z" />
<glyph unicode="T" horiz-adv-x="1056" d="M33 1307v127h991v-127h-428v-1307h-135v1307h-428z" />
<glyph unicode="U" horiz-adv-x="1339" d="M178 459v975h135v-988q0 -147 95 -241t262 -94t261.5 94t94.5 241v988h135v-975q0 -225 -143 -350q-140 -125 -348 -125t-351 125q-141 126 -141 350z" />
<glyph unicode="V" horiz-adv-x="1175" d="M14 1434h140l434 -1241l434 1241h139l-502 -1434h-143z" />
<glyph unicode="W" horiz-adv-x="1841" d="M66 1434h139l325 -1225l330 1073h121l330 -1073l325 1225h140l-394 -1434h-137l-325 1073l-324 -1073h-137z" />
<glyph unicode="X" horiz-adv-x="1159" d="M43 0l467 791l-379 643h141l308 -523l307 523h141l-379 -643l467 -791h-141l-395 672l-396 -672h-141z" />
<glyph unicode="Y" horiz-adv-x="1024" d="M12 1434h158l342 -678l342 678h158l-432 -811v-623h-136v623z" />
<glyph unicode="Z" horiz-adv-x="1122" d="M98 0v66l721 1241h-696v127h876v-66l-712 -1241h727v-127h-916z" />
<glyph unicode="[" horiz-adv-x="659" d="M207 -102v1638h366v-115h-243v-1409h243v-114h-366z" />
<glyph unicode="\" horiz-adv-x="1079" d="M16 1536h136l892 -1638h-135z" />
<glyph unicode="]" horiz-adv-x="659" d="M86 12h244v1409h-244v115h367v-1638h-367v114z" />
<glyph unicode="^" horiz-adv-x="1064" d="M106 879l377 555h99l376 -555h-141l-285 436l-284 -436h-142z" />
<glyph unicode="_" horiz-adv-x="972" d="M68 0h837v-115h-837v115z" />
<glyph unicode="`" horiz-adv-x="428" d="M43 1434h190l144 -287h-101z" />
<glyph unicode="a" horiz-adv-x="1036" d="M117 297q0 165 124.5 251.5t350.5 86.5h172v45q0 126 -62.5 188t-175.5 62q-187 0 -245 -193l-123 29q20 128 122.5 205.5t245.5 77.5q158 0 260 -99q105 -94 105 -266v-684h-96l-31 160q-102 -176 -326 -176q-147 0 -234 79t-87 234zM250 297q0 -93 53.5 -144t147.5 -51 q119 0 215 93q98 91 98 282v39h-168q-170 0 -258 -57t-88 -162z" />
<glyph unicode="b" horiz-adv-x="1224" d="M197 0v1450h131v-563q55 72 145.5 117t175.5 45q216 0 338 -152q123 -150 123 -381q0 -233 -123 -383q-119 -149 -338 -149q-96 0 -187.5 44t-133.5 107v-135h-131zM311 516q0 -187 87.5 -300.5t244.5 -113.5t245.5 113.5t88.5 300.5q0 181 -88 297q-89 117 -246 117 q-158 0 -246 -117q-86 -118 -86 -297z" />
<glyph unicode="c" horiz-adv-x="1081" d="M115 516q0 218 121 375q122 158 335 158q308 0 416 -285l-115 -45q-85 211 -301 211q-159 0 -241 -119q-82 -116 -82 -295q0 -178 82 -297q82 -117 241 -117q216 0 301 211l115 -45q-108 -284 -416 -284q-216 0 -335 155q-121 157 -121 377z" />
<glyph unicode="d" horiz-adv-x="1224" d="M115 516q0 230 121 381q125 152 339 152q85 0 176 -45.5t146 -116.5v563h131v-1450h-131v135q-42 -63 -134 -107t-188 -44q-217 0 -339 149q-121 151 -121 383zM248 516q0 -187 88.5 -300.5t245.5 -113.5t244 113.5t87 300.5q0 181 -88 297q-85 117 -243 117t-246 -117 q-88 -116 -88 -297z" />
<glyph unicode="e" horiz-adv-x="1130" d="M115 516q0 230 127 381q128 152 331 152q201 0 326 -131q127 -133 127 -345v-57h-778q0 -187 87.5 -300.5t237.5 -113.5q116 0 188 51t130 171l113 -56q-77 -152 -179 -218t-252 -66q-206 0 -331 149q-127 151 -127 383zM256 635h639q-19 138 -103 216.5t-219 78.5 q-122 0 -206 -81t-111 -214z" />
<glyph unicode="f" horiz-adv-x="735" d="M102 913v119h164v66q0 352 320 352q74 0 123 -27l-27 -116q-53 24 -107 24q-182 0 -182 -213v-86h250v-119h-250v-913h-127v913h-164z" />
<glyph unicode="g" horiz-adv-x="1005" d="M113 -94q0 139 106 217q-82 49 -82 168q0 60 34.5 108.5t92.5 75.5q-78 96 -78 227q0 156 101 250q105 97 250 97q93 0 178 -48l184 105l59 -109l-143 -79q72 -93 72 -216q0 -157 -101 -251q-103 -95 -249 -95q-110 0 -193 50q-84 -38 -84 -115q0 -98 127 -98h266 q145 0 227.5 -69t82.5 -202q0 -178 -112.5 -267t-311.5 -89q-197 0 -311.5 90.5t-114.5 249.5zM236 -98q0 -104 78 -162.5t225 -58.5q143 0 222 61.5t79 163.5q0 176 -201 176h-211q-54 0 -100 6q-92 -59 -92 -186zM313 702q0 -108 64 -172q63 -63 160 -63q94 0 157 63 q66 66 66 172t-66 172q-64 64 -157 64q-96 0 -160 -64t-64 -172z" />
<glyph unicode="h" horiz-adv-x="1198" d="M197 0v1450h127v-643q49 115 150 178.5t218 63.5q152 0 237 -89.5t85 -250.5v-709h-127v692q0 113 -55.5 175.5t-159.5 62.5q-146 0 -248 -135q-100 -132 -100 -355v-440h-127z" />
<glyph unicode="i" horiz-adv-x="573" d="M184 1329q0 45 29 74q31 31 75.5 31t73.5 -31q31 -29 31 -74t-31 -76q-29 -29 -73.5 -29t-75.5 29q-29 31 -29 76zM225 0v1032h127v-1032h-127z" />
<glyph unicode="j" horiz-adv-x="573" d="M68 -315q87 25 122 69t35 133v1145h127v-1163q0 -262 -256 -303zM184 1329q0 45 29 74q31 31 75.5 31t73.5 -31q31 -29 31 -74t-31 -76q-29 -29 -73.5 -29t-75.5 29q-29 31 -29 76z" />
<glyph unicode="k" horiz-adv-x="987" d="M197 0v1450h127v-875l432 457h159l-446 -473l483 -559h-161l-467 543v-543h-127z" />
<glyph unicode="l" horiz-adv-x="499" d="M193 0v1450h126v-1450h-126z" />
<glyph unicode="m" horiz-adv-x="1744" d="M197 0v1032h127v-215q51 108 135.5 170t191.5 62q235 0 281 -230q55 102 146.5 166t191.5 64q149 0 220 -84t71 -256v-709h-127v692q0 124 -42 181t-143 57q-131 0 -219 -131t-88 -346v-453h-127v692q0 125 -41.5 181.5t-142.5 56.5q-131 0 -219 -131t-88 -346v-453h-127 z" />
<glyph unicode="n" horiz-adv-x="1179" d="M197 0v1032h127v-215q55 105 150 168.5t204 63.5q148 0 232.5 -89.5t84.5 -250.5v-709h-127v692q0 238 -211 238q-145 0 -239 -131t-94 -346v-453h-127z" />
<glyph unicode="o" d="M115 516q0 213 133 373t350 160t350 -160t133 -373t-133 -373q-132 -159 -350 -159t-350 159q-133 160 -133 373zM248 516q0 -167 92 -291q94 -123 258 -123t256 123q94 122 94 291t-94 291q-92 123 -256 123t-258 -123q-92 -124 -92 -291z" />
<glyph unicode="p" horiz-adv-x="1224" d="M197 -418v1450h131v-135q42 63 133.5 107.5t187.5 44.5q216 0 338 -152q123 -150 123 -381q0 -233 -123 -383q-119 -149 -338 -149q-86 0 -176 45t-145 116v-563h-131zM311 516q0 -179 86 -297q88 -117 246 -117q157 0 246 117q88 116 88 297q0 187 -88.5 300.5 t-245.5 113.5t-244.5 -113.5t-87.5 -300.5z" />
<glyph unicode="q" horiz-adv-x="1224" d="M115 516q0 230 121 381q125 152 339 152q96 0 188 -44.5t134 -107.5v135h131v-1450h-131v563q-55 -71 -145.5 -116t-176.5 -45q-217 0 -339 149q-121 151 -121 383zM248 516q0 -181 88 -297q88 -117 246 -117t243 117q88 116 88 297q0 187 -87 300.5t-244 113.5 t-245.5 -113.5t-88.5 -300.5z" />
<glyph unicode="r" horiz-adv-x="817" d="M197 0v1032h127v-184q95 201 303 201q68 0 155 -35l-28 -121q-67 37 -146 37q-127 0 -205.5 -141t-78.5 -390v-399h-127z" />
<glyph unicode="s" horiz-adv-x="921" d="M111 266l112 60q41 -112 101 -168t159 -56q90 0 138.5 49t48.5 136q0 60 -47.5 106t-124.5 74q-127 50 -169 75q-140 79 -147 215v15q0 122 82 199.5t207 77.5q172 0 287 -160l-90 -78q-88 119 -203 119q-67 0 -109.5 -43.5t-42.5 -112.5q0 -100 172 -170 q142 -56 200 -96q118 -81 118 -201q0 -149 -86 -236t-234 -87q-145 0 -239.5 78.5t-132.5 203.5z" />
<glyph unicode="t" horiz-adv-x="759" d="M55 913v119h183v334l131 84v-418h274v-119h-274v-641q0 -170 143 -170q79 0 129 33l35 -115q-65 -36 -180 -36q-121 0 -189.5 78.5t-68.5 230.5v620h-183z" />
<glyph unicode="u" horiz-adv-x="1179" d="M184 324v708h127v-692q0 -238 211 -238q144 0 238 131q96 134 96 347v452h127v-1032h-127v215q-55 -105 -150 -168t-204 -63q-148 0 -233 90t-85 250z" />
<glyph unicode="v" horiz-adv-x="917" d="M41 1032h133l285 -862l284 862h134l-349 -1032h-139z" />
<glyph unicode="w" horiz-adv-x="1470" d="M80 1032h133l242 -852l217 852h127l217 -852l241 852h134l-310 -1032h-131l-215 844l-215 -844h-131z" />
<glyph unicode="x" horiz-adv-x="913" d="M39 0l348 563l-291 469h142l219 -356l219 356h141l-291 -469l348 -563h-133l-284 451l-285 -451h-133z" />
<glyph unicode="y" horiz-adv-x="925" d="M35 1032h133l307 -835l287 835h133l-512 -1450h-127l150 424z" />
<glyph unicode="z" horiz-adv-x="933" d="M115 0v61l526 852h-502v119h670v-69l-520 -844h542v-119h-716z" />
<glyph unicode="{" horiz-adv-x="649" d="M133 659v115q87 0 124.5 40.5t37.5 133.5v375q0 98 52.5 155.5t139.5 57.5h95v-115h-62q-54 0 -78 -24t-24 -78v-404q0 -85 -30 -128.5t-99 -69.5q68 -26 98.5 -70t30.5 -129v-403q0 -54 24 -78.5t78 -24.5h62v-114h-95q-87 0 -139.5 57.5t-52.5 155.5v374 q0 93 -37.5 133.5t-124.5 40.5z" />
<glyph unicode="|" horiz-adv-x="536" d="M207 -102v1638h123v-1638h-123z" />
<glyph unicode="}" horiz-adv-x="649" d="M68 12h61q54 0 78 24.5t24 78.5v403q0 85 30.5 129t98.5 70q-69 26 -99 69.5t-30 128.5v404q0 54 -24 78t-78 24h-61v115h94q87 0 139.5 -57.5t52.5 -155.5v-375q0 -93 37.5 -133.5t124.5 -40.5v-115q-87 0 -124.5 -40.5t-37.5 -133.5v-374q0 -98 -52.5 -155.5 t-139.5 -57.5h-94v114z" />
<glyph unicode="~" horiz-adv-x="1232" d="M174 655q115 160 250 160q79 0 186 -55t183 -55q107 0 184 92l82 -80q-115 -160 -250 -160q-79 0 -186 55q-109 56 -183 56q-106 0 -184 -93z" />
<glyph unicode="&#xa1;" horiz-adv-x="665" d="M215 902.5q0 49.5 31 80.5q32 32 81.5 32t80.5 -32q32 -31 32 -80.5t-32 -81.5q-31 -31 -80.5 -31t-81.5 31q-31 32 -31 81.5zM242 -422l45 1057h82l45 -1057h-172z" />
<glyph unicode="&#xa2;" horiz-adv-x="1122" d="M125 717q0 205 104 354q107 155 295 176v289h123v-289q251 -27 350 -282l-114 -45q-85 210 -301 210q-161 0 -242 -118q-82 -116 -82 -295q0 -178 82 -297q83 -117 242 -117q216 0 301 211l114 -45q-95 -253 -350 -283v-288h-123v288q-188 21 -295 174q-104 152 -104 357 z" />
<glyph unicode="&#xa3;" horiz-adv-x="1085" d="M98 96q226 218 226 434q0 76 -27 156h-172v119h129q-51 128 -51 233q0 191 102.5 301.5t274.5 110.5q133 0 229.5 -75.5t148.5 -213.5l-112 -51q-53 116 -114 168.5t-152 52.5q-112 0 -179 -78t-67 -217q0 -88 47 -231h336v-119h-299q20 -79 20 -160q0 -99 -49 -209 q-46 -110 -115 -170q82 46 175 46q71 0 157 -50q85 -49 125 -49q67 0 108.5 34.5t98.5 137.5l96 -55q-66 -125 -133.5 -176t-165.5 -51q-81 0 -170 47t-145 47q-65 0 -111.5 -21t-109.5 -73z" />
<glyph unicode="&#xa4;" horiz-adv-x="1118" d="M59 242l179 137q-78 113 -78 250t78 250l-179 137l113 112l135 -174q107 88 252 88t252 -88l135 174l113 -112l-178 -137q77 -112 77 -250t-77 -250l178 -137l-113 -113l-135 174q-107 -88 -252 -88t-252 88l-135 -174zM274 629q0 -135 78 -219t207 -84t207 84t78 219 t-78 219t-207 84t-207 -84t-78 -219z" />
<glyph unicode="&#xa5;" horiz-adv-x="1024" d="M27 1434h157l328 -674l328 674h157l-358 -697h270v-114h-329v-179h329v-114h-329v-330h-136v330h-329v114h329v179h-329v114h270z" />
<glyph unicode="&#xa6;" horiz-adv-x="536" d="M207 -102v714h123v-714h-123zM207 821v715h123v-715h-123z" />
<glyph unicode="&#xa7;" horiz-adv-x="1095" d="M139 582q0 159 166 264q-100 100 -100 233q0 174 100 271q100 100 246 100q300 0 371 -299l-115 -39q-65 219 -256 219q-96 0 -155.5 -66t-59.5 -182q0 -94 84 -161q51 -38 86 -56l44 -24q45 -23 77 -39q66 -33 129 -68q112 -63 159.5 -130.5t47.5 -170.5 q0 -159 -166 -264q100 -100 100 -233q0 -172 -102 -271q-100 -100 -244 -100q-300 0 -371 299l115 39q65 -219 256 -219q96 0 155.5 65.5t59.5 181.5q0 99 -84 160q-60 45 -86 58l-121 61q-10 5 -129 70q-112 63 -159.5 130.5t-47.5 170.5zM262 580q0 -48 26 -85.5t79 -76.5 q78 -50 112 -68l66 -31l149 -71q146 71 146 188q0 94 -105 160q-65 45 -112 68l-66 32l-149 72q-146 -71 -146 -188z" />
<glyph unicode="&#xa8;" horiz-adv-x="602" d="M43 1331q0 43 29 73t71 30q43 0 72 -30t29 -73q0 -41 -29 -69.5t-72 -28.5t-71.5 28.5t-28.5 69.5zM358 1331q0 43 29 73t70 30q43 0 72.5 -30t29.5 -73q0 -41 -29.5 -69.5t-72.5 -28.5q-41 0 -70 28.5t-29 69.5z" />
<glyph unicode="&#xa9;" horiz-adv-x="1847" d="M154 717q0 342 217 569q217 230 553 230q334 0 551 -230q219 -230 219 -569t-219 -572q-217 -227 -551 -227q-336 0 -553 227q-217 230 -217 572zM281 717q0 -286 178 -479t465 -193t465 193t178 479t-178 479t-465 193t-465 -193t-178 -479zM524 717q0 216 123 330 q124 112 277 112q128 0 219 -71t123 -199l-109 -29q-62 189 -233 189q-126 0 -202.5 -87t-76.5 -245t76.5 -245t202.5 -87q171 0 233 188l109 -28q-32 -128 -123 -199.5t-219 -71.5q-152 0 -277 113q-123 114 -123 330z" />
<glyph unicode="&#xaa;" horiz-adv-x="880" d="M135 852q0 129 97.5 197.5t275.5 68.5h135v35q0 190 -186 190q-145 0 -191 -147l-98 25q20 103 98.5 162t190.5 59q135 0 210.5 -71t75.5 -216v-541h-75l-21 129q-79 -137 -260 -137q-112 0 -182 65t-70 181zM250 852q0 -72 39 -109.5t108 -37.5q95 0 170 69 q76 70 76 219v31h-131q-262 0 -262 -172z" />
<glyph unicode="&#xab;" horiz-adv-x="1236" d="M102 592v86l539 399v-139l-405 -303l405 -303v-139zM575 592v86l539 399v-139l-405 -303l405 -303v-139z" />
<glyph unicode="&#xac;" horiz-adv-x="1173" d="M143 659v119h867v-487h-131v368h-736z" />
<glyph unicode="&#xad;" horiz-adv-x="964" d="M145 592v115h674v-115h-674z" />
<glyph unicode="&#xae;" horiz-adv-x="1847" d="M154 717q0 342 217 569q217 230 553 230q334 0 551 -230q219 -230 219 -569t-219 -572q-217 -227 -551 -227q-336 0 -553 227q-217 230 -217 572zM281 717q0 -286 178 -479t465 -193t465 193t178 479t-178 479t-465 193t-465 -193t-178 -479zM645 281v872h295 q124 0 198 -68.5t74 -181.5q0 -91 -54.5 -157.5t-141.5 -83.5l260 -381h-127l-258 372h-125v-372h-121zM766 764h174q73 0 112.5 36.5t39.5 102.5q0 139 -152 139h-174v-278z" />
<glyph unicode="&#xaf;" horiz-adv-x="555" d="M31 1319v115h493v-115h-493z" />
<glyph unicode="&#xb0;" horiz-adv-x="720" d="M137 1214q0 97 62 162q66 66 161 66q97 0 160 -66q64 -64 64 -162q0 -99 -64 -163q-61 -64 -160 -64q-97 0 -161 64q-62 65 -62 163zM235 1214.5q0 -57.5 35 -94.5q35 -35 90.5 -35t90.5 35q35 37 35 94.5t-35 92.5q-35 37 -90.5 37t-90.5 -37q-35 -35 -35 -92.5z" />
<glyph unicode="&#xb1;" horiz-adv-x="1107" d="M135 0v115h840v-115h-840zM135 758v114h363v361h114v-361h363v-114h-363v-363h-114v363h-363z" />
<glyph unicode="&#xb2;" horiz-adv-x="780" d="M133 614v39l301 375q82 101 82 184q0 60 -33 93.5t-94 33.5q-54 0 -88.5 -42t-42.5 -113l-111 28q11 101 77 165.5t165 64.5q109 0 173.5 -63t64.5 -167q0 -112 -80 -215l-228 -280h328v-103h-514z" />
<glyph unicode="&#xb3;" horiz-adv-x="788" d="M133 846l111 16q8 -73 47.5 -115t105.5 -42q71 0 109.5 47t38.5 125q0 77 -38 121t-110 44q-38 0 -71 -20l-54 72l183 241h-277v99h436v-35l-204 -277q16 4 36 4q93 0 151 -67.5t58 -181.5q0 -119 -68.5 -195t-189.5 -76q-110 0 -182 64.5t-82 175.5z" />
<glyph unicode="&#xb4;" horiz-adv-x="428" d="M51 1147l144 287h190l-233 -287h-101z" />
<glyph unicode="&#xb5;" horiz-adv-x="1179" d="M184 -418v1450h127v-692q0 -238 211 -238q144 0 238 131q96 134 96 347v452h127v-1032h-127v215q-55 -105 -150 -168t-204 -63q-114 0 -191 53v-455h-127z" />
<glyph unicode="&#xb6;" horiz-adv-x="1333" d="M125 1079q0 148 102 250q105 105 252 105h715v-127h-119v-1725h-135v1725h-326v-1725h-135v1143q-147 0 -252 102q-102 105 -102 252z" />
<glyph unicode="&#xb7;" horiz-adv-x="581" d="M186 715q0 44 30.5 74t74.5 30t74 -30t30 -74t-30 -74.5t-74 -30.5q-45 0 -75 29t-30 76z" />
<glyph unicode="&#xb8;" horiz-adv-x="358" d="M23 -375l200 252h113l-166 -315z" />
<glyph unicode="&#xb9;" horiz-adv-x="581" d="M123 1198v115l244 121h32v-820h-102v668z" />
<glyph unicode="&#xba;" horiz-adv-x="1048" d="M145 1024q0 167 105 293q104 125 274 125q171 0 275 -125t104 -293t-104 -293t-275 -125q-170 0 -274 125q-105 126 -105 293zM256 1024q0 -131 70 -225t198 -94q127 0 197 94q72 97 72 225t-72 225q-70 94 -197 94q-128 0 -198 -94t-70 -225z" />
<glyph unicode="&#xbb;" horiz-adv-x="1236" d="M123 193v139l405 303l-405 303v139l539 -399v-86zM596 193v139l405 303l-405 303v139l539 -399v-86z" />
<glyph unicode="&#xbc;" horiz-adv-x="1617" d="M164 1198v115l244 121h32v-820h-102v668zM195 18l1110 1465l86 -68l-1110 -1464zM877 170v35l331 614h121v-551h107v-98h-107v-170h-102v170h-350zM1018 268h209v400z" />
<glyph unicode="&#xbd;" horiz-adv-x="1755" d="M164 1198v115l244 121h32v-820h-102v668zM195 18l1110 1465l86 -68l-1110 -1464zM1028 0v39l301 375q82 101 82 184q0 60 -33 93.5t-94 33.5q-54 0 -88.5 -42.5t-42.5 -113.5l-111 29q11 101 77 165t165 64q109 0 173.5 -62.5t64.5 -166.5q0 -112 -80 -215l-228 -281h328 v-102h-514z" />
<glyph unicode="&#xbe;" horiz-adv-x="1720" d="M133 846l111 16q8 -73 47.5 -115t105.5 -42q71 0 109.5 47t38.5 125q0 77 -38 121t-110 44q-38 0 -71 -20l-54 72l183 241h-277v99h436v-35l-204 -277q16 4 36 4q93 0 151 -67.5t58 -181.5q0 -119 -68.5 -195t-189.5 -76q-110 0 -182 64.5t-82 175.5zM342 18l1110 1465 l86 -68l-1110 -1464zM969 170v35l331 614h121v-551h107v-98h-107v-170h-102v170h-350zM1110 268h209v400z" />
<glyph unicode="&#xbf;" horiz-adv-x="897" d="M102 -152q0 159 179 254l147 80q72 38 102.5 80t30.5 103q0 57 -33 90.5t-90 33.5q-62 0 -100.5 -31.5t-61.5 -103.5l-102 39q59 215 260 215q110 0 182 -65.5t72 -182.5q0 -164 -180 -262l-168 -92q-107 -58 -107 -151q0 -82 52.5 -128t148.5 -46q180 0 232 208l129 -22 q-25 -144 -122 -224.5t-253 -80.5q-140 0 -229 79.5t-89 206.5zM317 902.5q0 49.5 31 80.5q32 32 81.5 32t80.5 -32q32 -31 32 -80.5t-32 -81.5q-31 -31 -80.5 -31t-81.5 31q-31 32 -31 81.5z" />
<glyph unicode="&#xc0;" d="M20 0l519 1434h118l519 -1434h-140l-143 408h-590l-143 -408h-140zM346 535h504l-252 714zM375 1835h190l144 -287h-101z" />
<glyph unicode="&#xc1;" d="M20 0l519 1434h118l519 -1434h-140l-143 408h-590l-143 -408h-140zM346 535h504l-252 714zM483 1548l144 287h190l-233 -287h-101z" />
<glyph unicode="&#xc2;" d="M20 0l519 1434h118l519 -1434h-140l-143 408h-590l-143 -408h-140zM281 1561l294 309h46l294 -309h-147l-170 182l-170 -182h-147zM346 535h504l-252 714z" />
<glyph unicode="&#xc3;" d="M20 0l519 1434h118l519 -1434h-140l-143 408h-590l-143 -408h-140zM254 1679q77 142 203 142q74 0 147 -43q77 -41 121 -41q79 0 137 73l82 -63q-76 -141 -203 -141q-72 0 -149 41q-73 43 -119 43q-78 0 -137 -74zM346 535h504l-252 714z" />
<glyph unicode="&#xc4;" d="M20 0l519 1434h118l519 -1434h-140l-143 408h-590l-143 -408h-140zM340 1733q0 43 28.5 72.5t71.5 29.5t72 -29.5t29 -72.5q0 -41 -29 -70t-72 -29q-42 0 -71 29t-29 70zM346 535h504l-252 714zM655 1733q0 43 29 72.5t70 29.5q43 0 72.5 -29.5t29.5 -72.5 q0 -41 -29.5 -70t-72.5 -29q-41 0 -70 29t-29 70z" />
<glyph unicode="&#xc5;" d="M20 0l519 1434h118l519 -1434h-140l-143 408h-590l-143 -408h-140zM346 535h504l-252 714zM406 1739q0 85 56.5 142.5t141.5 57.5q86 0 142.5 -57t56.5 -143q0 -82 -56.5 -137.5t-142.5 -55.5q-85 0 -141.5 55.5t-56.5 137.5zM500 1741q0 -47 29.5 -77t74.5 -30 q47 0 76 30t29 77q0 49 -29 79.5t-76 30.5q-44 0 -74 -31.5t-30 -78.5z" />
<glyph unicode="&#xc6;" horiz-adv-x="1681" d="M14 0l629 1434h891v-127h-674v-480h551v-127h-551v-573h694v-127h-829v408h-391l-178 -408h-142zM389 535h336v714h-23z" />
<glyph unicode="&#xc7;" horiz-adv-x="1392" d="M121 717q0 178 52 321.5t144 231.5q186 180 437 180q201 0 342.5 -109t197.5 -301l-133 -39q-42 155 -145.5 238.5t-261.5 83.5q-221 0 -357 -160q-135 -159 -135 -446q0 -288 135 -447t357 -159q158 0 261.5 83t145.5 238l133 -39q-56 -192 -197.5 -300.5t-342.5 -108.5 q-262 0 -449 190q-184 190 -184 543zM557 -375l201 252h112l-165 -315z" />
<glyph unicode="&#xc8;" horiz-adv-x="1163" d="M207 0v1434h809v-127h-674v-480h551v-127h-551v-573h694v-127h-829zM408 1835h190l143 -287h-100z" />
<glyph unicode="&#xc9;" horiz-adv-x="1163" d="M207 0v1434h809v-127h-674v-480h551v-127h-551v-573h694v-127h-829zM504 1548l143 287h191l-234 -287h-100z" />
<glyph unicode="&#xca;" horiz-adv-x="1163" d="M207 0v1434h809v-127h-674v-480h551v-127h-551v-573h694v-127h-829zM293 1561l295 309h45l295 -309h-148l-170 182l-170 -182h-147z" />
<glyph unicode="&#xcb;" horiz-adv-x="1163" d="M207 0v1434h809v-127h-674v-480h551v-127h-551v-573h694v-127h-829zM375 1733q0 43 28.5 72.5t71.5 29.5t71.5 -29.5t28.5 -72.5q0 -41 -28.5 -70t-71.5 -29t-71.5 29t-28.5 70zM690 1733q0 43 28.5 72.5t69.5 29.5q43 0 73 -29.5t30 -72.5q0 -41 -30 -70t-73 -29 q-41 0 -69.5 29t-28.5 70z" />
<glyph unicode="&#xcc;" horiz-adv-x="548" d="M51 1835h191l143 -287h-100zM207 0v1434h135v-1434h-135z" />
<glyph unicode="&#xcd;" horiz-adv-x="548" d="M174 1548l143 287h191l-234 -287h-100zM207 0v1434h135v-1434h-135z" />
<glyph unicode="&#xce;" horiz-adv-x="548" d="M-43 1561l295 309h45l295 -309h-148l-170 182l-170 -182h-147zM207 0v1434h135v-1434h-135z" />
<glyph unicode="&#xcf;" horiz-adv-x="548" d="M16 1733q0 43 29 72.5t72 29.5t71.5 -29.5t28.5 -72.5q0 -41 -28.5 -70t-71.5 -29t-72 29t-29 70zM207 0v1434h135v-1434h-135zM332 1733q0 43 28.5 72.5t69.5 29.5q43 0 72.5 -29.5t29.5 -72.5q0 -41 -29.5 -70t-72.5 -29q-41 0 -69.5 29t-28.5 70z" />
<glyph unicode="&#xd0;" horiz-adv-x="1406" d="M86 653v127h172v654h377q281 0 467 -195q184 -193 184 -522q0 -331 -184 -524t-467 -193h-377v653h-172zM393 127h244q217 0 360 149q148 151 148 441q0 289 -148 440q-144 150 -360 150h-244v-527h172v-127h-172v-526z" />
<glyph unicode="&#xd1;" horiz-adv-x="1419" d="M207 0v1434h160l710 -1219v1219h135v-1434h-159l-711 1214v-1214h-135zM354 1679q77 142 203 142q75 0 148 -43q77 -41 120 -41q80 0 138 73l81 -63q-77 -141 -202 -141q-73 0 -150 41q-73 43 -119 43q-78 0 -137 -74z" />
<glyph unicode="&#xd2;" horiz-adv-x="1499" d="M121 717q0 330 182 530q185 203 447 203t444 -203q184 -199 184 -530t-184 -533q-182 -200 -444 -200t-447 200q-182 203 -182 533zM262 717q0 -291 137 -449q139 -157 351 -157q209 0 348 157q139 160 139 449t-139 446q-139 160 -348 160q-212 0 -351 -160 q-137 -155 -137 -446zM506 1835h190l144 -287h-101z" />
<glyph unicode="&#xd3;" horiz-adv-x="1499" d="M121 717q0 330 182 530q185 203 447 203t444 -203q184 -199 184 -530t-184 -533q-182 -200 -444 -200t-447 200q-182 203 -182 533zM262 717q0 -291 137 -449q139 -157 351 -157q209 0 348 157q139 160 139 449t-139 446q-139 160 -348 160q-212 0 -351 -160 q-137 -155 -137 -446zM588 1548l143 287h191l-234 -287h-100z" />
<glyph unicode="&#xd4;" horiz-adv-x="1499" d="M121 717q0 330 182 530q185 203 447 203t444 -203q184 -199 184 -530t-184 -533q-182 -200 -444 -200t-447 200q-182 203 -182 533zM262 717q0 -291 137 -449q139 -157 351 -157q209 0 348 157q139 160 139 449t-139 446q-139 160 -348 160q-212 0 -351 -160 q-137 -155 -137 -446zM432 1561l295 309h45l295 -309h-147l-170 182l-170 -182h-148z" />
<glyph unicode="&#xd5;" horiz-adv-x="1499" d="M121 717q0 330 182 530q185 203 447 203t444 -203q184 -199 184 -530t-184 -533q-182 -200 -444 -200t-447 200q-182 203 -182 533zM262 717q0 -291 137 -449q139 -157 351 -157q209 0 348 157q139 160 139 449t-139 446q-139 160 -348 160q-212 0 -351 -160 q-137 -155 -137 -446zM406 1679q77 142 202 142q75 0 148 -43q77 -41 121 -41q79 0 137 73l82 -63q-76 -141 -203 -141q-73 0 -150 41q-73 43 -118 43q-79 0 -138 -74z" />
<glyph unicode="&#xd6;" horiz-adv-x="1499" d="M121 717q0 330 182 530q185 203 447 203t444 -203q184 -199 184 -530t-184 -533q-182 -200 -444 -200t-447 200q-182 203 -182 533zM262 717q0 -291 137 -449q139 -157 351 -157q209 0 348 157q139 160 139 449t-139 446q-139 160 -348 160q-212 0 -351 -160 q-137 -155 -137 -446zM492 1733q0 43 28.5 72.5t71.5 29.5t71.5 -29.5t28.5 -72.5q0 -41 -29 -70t-71 -29t-71 29t-29 70zM807 1733q0 43 28.5 72.5t69.5 29.5q43 0 73 -29.5t30 -72.5q0 -41 -30 -70t-73 -29q-41 0 -69.5 29t-28.5 70z" />
<glyph unicode="&#xd7;" horiz-adv-x="1073" d="M141 332l314 315l-314 314l80 81l316 -315l311 313l82 -82l-314 -311l316 -315l-82 -80l-313 313l-316 -313z" />
<glyph unicode="&#xd8;" horiz-adv-x="1499" d="M121 717q0 330 182 530q185 203 447 203q218 0 383 -139l120 155l95 -71l-131 -170q161 -196 161 -508q0 -331 -184 -533q-182 -200 -444 -200q-218 0 -383 139l-121 -156l-94 72l131 170q-162 198 -162 508zM262 717q0 -244 103 -402l690 895q-125 113 -305 113 q-212 0 -351 -160q-137 -155 -137 -446zM444 223q124 -112 306 -112q209 0 348 157q139 160 139 449q0 245 -102 401z" />
<glyph unicode="&#xd9;" horiz-adv-x="1339" d="M178 459v975h135v-988q0 -147 95 -241t262 -94t261.5 94t94.5 241v988h135v-975q0 -225 -143 -350q-140 -125 -348 -125t-351 125q-141 126 -141 350zM440 1835h191l143 -287h-100z" />
<glyph unicode="&#xda;" horiz-adv-x="1339" d="M178 459v975h135v-988q0 -147 95 -241t262 -94t261.5 94t94.5 241v988h135v-975q0 -225 -143 -350q-140 -125 -348 -125t-351 125q-141 126 -141 350zM551 1548l143 287h191l-234 -287h-100z" />
<glyph unicode="&#xdb;" horiz-adv-x="1339" d="M178 459v975h135v-988q0 -147 95 -241t262 -94t261.5 94t94.5 241v988h135v-975q0 -225 -143 -350q-140 -125 -348 -125t-351 125q-141 126 -141 350zM350 1561l295 309h45l295 -309h-147l-170 182l-170 -182h-148z" />
<glyph unicode="&#xdc;" horiz-adv-x="1339" d="M178 459v975h135v-988q0 -147 95 -241t262 -94t261.5 94t94.5 241v988h135v-975q0 -225 -143 -350q-140 -125 -348 -125t-351 125q-141 126 -141 350zM412 1733q0 43 28.5 72.5t71.5 29.5t71.5 -29.5t28.5 -72.5q0 -41 -29 -70t-71 -29t-71 29t-29 70zM727 1733 q0 43 28.5 72.5t69.5 29.5q43 0 73 -29.5t30 -72.5q0 -41 -30 -70t-73 -29q-41 0 -69.5 29t-28.5 70z" />
<glyph unicode="&#xdd;" horiz-adv-x="1024" d="M12 1434h158l342 -678l342 678h158l-432 -811v-623h-136v623zM385 1548l143 287h191l-234 -287h-100z" />
<glyph unicode="&#xde;" horiz-adv-x="1183" d="M207 0v1434h135v-322h352q192 0 303 -105.5t111 -289.5t-111 -289.5t-303 -105.5h-352v-322h-135zM342 449h354q136 0 203.5 70.5t67.5 197.5t-67.5 197.5t-203.5 70.5h-354v-536z" />
<glyph unicode="&#xdf;" horiz-adv-x="1140" d="M82 725v115h111v159q0 212 104 331.5t274 119.5t272.5 -98.5t102.5 -255.5q0 -115 -54.5 -200t-139.5 -105q112 -26 202 -125q86 -95 86 -240q0 -208 -117.5 -325t-316.5 -117q-84 0 -155 14v119q71 -15 143 -15q153 0 234 81.5t81 230.5q0 150 -96 230.5t-258 80.5h-66 v115h78q121 0 188.5 66t67.5 179q0 114 -69 180t-183 66q-117 0 -182 -86t-65 -248v-997h-131v725h-111z" />
<glyph unicode="&#xe0;" horiz-adv-x="1036" d="M117 297q0 165 124.5 251.5t350.5 86.5h172v45q0 126 -62.5 188t-175.5 62q-187 0 -245 -193l-123 29q20 128 122.5 205.5t245.5 77.5q158 0 260 -99q105 -94 105 -266v-684h-96l-31 160q-102 -176 -326 -176q-147 0 -234 79t-87 234zM250 297q0 -93 53.5 -144t147.5 -51 q119 0 215 93q98 91 98 282v39h-168q-170 0 -258 -57t-88 -162zM309 1434h191l143 -287h-100z" />
<glyph unicode="&#xe1;" horiz-adv-x="1036" d="M117 297q0 165 124.5 251.5t350.5 86.5h172v45q0 126 -62.5 188t-175.5 62q-187 0 -245 -193l-123 29q20 128 122.5 205.5t245.5 77.5q158 0 260 -99q105 -94 105 -266v-684h-96l-31 160q-102 -176 -326 -176q-147 0 -234 79t-87 234zM250 297q0 -93 53.5 -144t147.5 -51 q119 0 215 93q98 91 98 282v39h-168q-170 0 -258 -57t-88 -162zM418 1147l143 287h191l-234 -287h-100z" />
<glyph unicode="&#xe2;" horiz-adv-x="1036" d="M117 297q0 165 124.5 251.5t350.5 86.5h172v45q0 126 -62.5 188t-175.5 62q-187 0 -245 -193l-123 29q20 128 122.5 205.5t245.5 77.5q158 0 260 -99q105 -94 105 -266v-684h-96l-31 160q-102 -176 -326 -176q-147 0 -234 79t-87 234zM217 1159l295 309h45l295 -309h-147 l-170 182l-170 -182h-148zM250 297q0 -93 53.5 -144t147.5 -51q119 0 215 93q98 91 98 282v39h-168q-170 0 -258 -57t-88 -162z" />
<glyph unicode="&#xe3;" horiz-adv-x="1036" d="M117 297q0 165 124.5 251.5t350.5 86.5h172v45q0 126 -62.5 188t-175.5 62q-187 0 -245 -193l-123 29q20 128 122.5 205.5t245.5 77.5q158 0 260 -99q105 -94 105 -266v-684h-96l-31 160q-102 -176 -326 -176q-147 0 -234 79t-87 234zM190 1278q77 141 203 141 q75 0 148 -43q77 -41 121 -41q78 0 137 74l82 -63q-77 -142 -203 -142q-73 0 -150 41q-73 43 -118 43q-79 0 -138 -74zM250 297q0 -93 53.5 -144t147.5 -51q119 0 215 93q98 91 98 282v39h-168q-170 0 -258 -57t-88 -162z" />
<glyph unicode="&#xe4;" horiz-adv-x="1036" d="M117 297q0 165 124.5 251.5t350.5 86.5h172v45q0 126 -62.5 188t-175.5 62q-187 0 -245 -193l-123 29q20 128 122.5 205.5t245.5 77.5q158 0 260 -99q105 -94 105 -266v-684h-96l-31 160q-102 -176 -326 -176q-147 0 -234 79t-87 234zM250 297q0 -93 53.5 -144t147.5 -51 q119 0 215 93q98 91 98 282v39h-168q-170 0 -258 -57t-88 -162zM274 1331q0 43 29 73t72 30q42 0 71 -30t29 -73q0 -41 -28.5 -69.5t-71.5 -28.5t-72 28.5t-29 69.5zM590 1331q0 43 28.5 73t69.5 30q43 0 73 -30t30 -73q0 -41 -30 -69.5t-73 -28.5q-41 0 -69.5 28.5 t-28.5 69.5z" />
<glyph unicode="&#xe5;" horiz-adv-x="1036" d="M117 297q0 165 124.5 251.5t350.5 86.5h172v45q0 126 -62.5 188t-175.5 62q-187 0 -245 -193l-123 29q20 128 122.5 205.5t245.5 77.5q158 0 260 -99q105 -94 105 -266v-684h-96l-31 160q-102 -176 -326 -176q-147 0 -234 79t-87 234zM250 297q0 -93 53.5 -144t147.5 -51 q119 0 215 93q98 91 98 282v39h-168q-170 0 -258 -57t-88 -162zM328 1337q0 85 57 143t141 58q86 0 142.5 -57.5t56.5 -143.5q0 -82 -56.5 -137t-142.5 -55q-85 0 -141.5 55t-56.5 137zM422 1339q0 -47 29.5 -76.5t74.5 -29.5q47 0 76 29.5t29 76.5q0 50 -29 80.5t-76 30.5 q-44 0 -74 -32t-30 -79z" />
<glyph unicode="&#xe6;" horiz-adv-x="1779" d="M117 297q0 165 124.5 251.5t350.5 86.5h172v45q0 126 -62.5 188t-175.5 62q-187 0 -245 -193l-123 29q20 128 122.5 205.5t245.5 77.5q115 0 204 -53t130 -146q129 199 363 199q200 0 325 -131q127 -133 127 -345v-57h-778q0 -187 87.5 -300.5t238.5 -113.5 q114 0 188.5 51.5t126.5 161.5l115 -47q-77 -152 -178.5 -218t-251.5 -66q-136 0 -243 70.5t-157 189.5q-46 -128 -147 -194t-238 -66q-147 0 -234 79t-87 234zM250 297q0 -93 53.5 -144t147.5 -51q119 0 215 93q98 91 98 282v39h-168q-170 0 -258 -57t-88 -162zM905 635 h639q-19 138 -102.5 216.5t-218.5 78.5q-122 0 -206.5 -81t-111.5 -214z" />
<glyph unicode="&#xe7;" horiz-adv-x="1081" d="M115 516q0 218 121 375q122 158 335 158q308 0 416 -285l-115 -45q-85 211 -301 211q-159 0 -241 -119q-82 -116 -82 -295q0 -178 82 -297q82 -117 241 -117q216 0 301 211l115 -45q-108 -284 -416 -284q-216 0 -335 155q-121 157 -121 377zM377 -375l201 252h112 l-166 -315z" />
<glyph unicode="&#xe8;" horiz-adv-x="1130" d="M115 516q0 230 127 381q128 152 331 152q201 0 326 -131q127 -133 127 -345v-57h-778q0 -187 87.5 -300.5t237.5 -113.5q116 0 188 51t130 171l113 -56q-77 -152 -179 -218t-252 -66q-206 0 -331 149q-127 151 -127 383zM256 635h639q-19 138 -103 216.5t-219 78.5 q-122 0 -206 -81t-111 -214zM371 1434h190l144 -287h-101z" />
<glyph unicode="&#xe9;" horiz-adv-x="1130" d="M115 516q0 230 127 381q128 152 331 152q201 0 326 -131q127 -133 127 -345v-57h-778q0 -187 87.5 -300.5t237.5 -113.5q116 0 188 51t130 171l113 -56q-77 -152 -179 -218t-252 -66q-206 0 -331 149q-127 151 -127 383zM256 635h639q-19 138 -103 216.5t-219 78.5 q-122 0 -206 -81t-111 -214zM420 1147l143 287h191l-234 -287h-100z" />
<glyph unicode="&#xea;" horiz-adv-x="1130" d="M115 516q0 230 127 381q128 152 331 152q201 0 326 -131q127 -133 127 -345v-57h-778q0 -187 87.5 -300.5t237.5 -113.5q116 0 188 51t130 171l113 -56q-77 -152 -179 -218t-252 -66q-206 0 -331 149q-127 151 -127 383zM256 635h639q-19 138 -103 216.5t-219 78.5 q-122 0 -206 -81t-111 -214zM256 1159l295 309h45l295 -309h-148l-170 182l-170 -182h-147z" />
<glyph unicode="&#xeb;" horiz-adv-x="1130" d="M115 516q0 230 127 381q128 152 331 152q201 0 326 -131q127 -133 127 -345v-57h-778q0 -187 87.5 -300.5t237.5 -113.5q116 0 188 51t130 171l113 -56q-77 -152 -179 -218t-252 -66q-206 0 -331 149q-127 151 -127 383zM256 635h639q-19 138 -103 216.5t-219 78.5 q-122 0 -206 -81t-111 -214zM328 1331q0 43 29 73t71 30t71 -30t29 -73q0 -41 -28.5 -69.5t-71.5 -28.5t-71.5 28.5t-28.5 69.5zM643 1331q0 43 28.5 73t69.5 30q43 0 73 -30t30 -73q0 -41 -30 -69.5t-73 -28.5q-41 0 -69.5 28.5t-28.5 69.5z" />
<glyph unicode="&#xec;" horiz-adv-x="573" d="M55 1434h191l143 -287h-100zM225 0v1032h127v-1032h-127z" />
<glyph unicode="&#xed;" horiz-adv-x="573" d="M199 1147l143 287h190l-233 -287h-100zM225 0v1032h127v-1032h-127z" />
<glyph unicode="&#xee;" horiz-adv-x="573" d="M-31 1159l295 309h45l295 -309h-147l-170 182l-170 -182h-148zM225 0v1032h127v-1032h-127z" />
<glyph unicode="&#xef;" horiz-adv-x="573" d="M33 1331q0 43 29 73t71 30t71 -30t29 -73q0 -41 -28.5 -69.5t-71.5 -28.5t-71.5 28.5t-28.5 69.5zM225 0v1032h127v-1032h-127zM348 1331q0 43 28.5 73t69.5 30q43 0 73 -30t30 -73q0 -41 -30 -69.5t-73 -28.5q-41 0 -69.5 28.5t-28.5 69.5z" />
<glyph unicode="&#xf0;" horiz-adv-x="1175" d="M115 516q0 217 129 373q130 160 344 160q170 0 278 -117q-55 162 -274 330l-90 -134l-86 62l90 131q-76 48 -166 86l59 88q104 -48 168 -84l78 115l86 -62l-76 -110q208 -142 307 -347t99 -491q0 -216 -129 -375q-130 -157 -344 -157t-344 157q-129 159 -129 375z M248 516q0 -171 88 -293q89 -121 252 -121t252 121q88 122 88 293q0 172 -88 291q-88 123 -252 123t-252 -123q-88 -119 -88 -291z" />
<glyph unicode="&#xf1;" horiz-adv-x="1179" d="M197 0v1032h127v-215q55 105 150 168.5t204 63.5q148 0 232.5 -89.5t84.5 -250.5v-709h-127v692q0 238 -211 238q-145 0 -239 -131t-94 -346v-453h-127zM260 1278q77 141 203 141q74 0 147 -43q77 -41 121 -41q78 0 137 74l82 -63q-77 -142 -202 -142q-73 0 -150 41 q-73 43 -119 43q-78 0 -137 -74z" />
<glyph unicode="&#xf2;" d="M115 516q0 213 133 373t350 160t350 -160t133 -373t-133 -373q-132 -159 -350 -159t-350 159q-133 160 -133 373zM248 516q0 -167 92 -291q94 -123 258 -123t256 123q94 122 94 291t-94 291q-92 123 -256 123t-258 -123q-92 -124 -92 -291zM379 1434h190l144 -287h-101z " />
<glyph unicode="&#xf3;" d="M115 516q0 213 133 373t350 160t350 -160t133 -373t-133 -373q-132 -159 -350 -159t-350 159q-133 160 -133 373zM248 516q0 -167 92 -291q94 -123 258 -123t256 123q94 122 94 291t-94 291q-92 123 -256 123t-258 -123q-92 -124 -92 -291zM446 1147l144 287h190 l-233 -287h-101z" />
<glyph unicode="&#xf4;" d="M115 516q0 213 133 373t350 160t350 -160t133 -373t-133 -373q-132 -159 -350 -159t-350 159q-133 160 -133 373zM248 516q0 -167 92 -291q94 -123 258 -123t256 123q94 122 94 291t-94 291q-92 123 -256 123t-258 -123q-92 -124 -92 -291zM281 1159l294 309h46l294 -309 h-147l-170 182l-170 -182h-147z" />
<glyph unicode="&#xf5;" d="M115 516q0 213 133 373t350 160t350 -160t133 -373t-133 -373q-132 -159 -350 -159t-350 159q-133 160 -133 373zM248 516q0 -167 92 -291q94 -123 258 -123t256 123q94 122 94 291t-94 291q-92 123 -256 123t-258 -123q-92 -124 -92 -291zM254 1278q76 141 203 141 q74 0 147 -43q77 -41 121 -41q78 0 137 74l82 -63q-77 -142 -203 -142q-72 0 -149 41q-73 43 -119 43q-78 0 -137 -74z" />
<glyph unicode="&#xf6;" d="M115 516q0 213 133 373t350 160t350 -160t133 -373t-133 -373q-132 -159 -350 -159t-350 159q-133 160 -133 373zM248 516q0 -167 92 -291q94 -123 258 -123t256 123q94 122 94 291t-94 291q-92 123 -256 123t-258 -123q-92 -124 -92 -291zM340 1331q0 43 29 73t71 30 q43 0 72 -30t29 -73q0 -41 -29 -69.5t-72 -28.5t-71.5 28.5t-28.5 69.5zM655 1331q0 43 29 73t70 30q43 0 72.5 -30t29.5 -73q0 -41 -29.5 -69.5t-72.5 -28.5q-41 0 -70 28.5t-29 69.5z" />
<glyph unicode="&#xf7;" horiz-adv-x="1044" d="M102 592v115h840v-115h-840zM415 274.5q0 44.5 29 73.5q31 31 76 31t74 -31q31 -29 31 -73.5t-31 -75.5q-29 -29 -74 -29t-76 29q-29 31 -29 75.5zM415 1024q0 45 29 74q31 31 76 31t74 -31q31 -29 31 -74t-31 -76q-29 -29 -74 -29t-76 29q-29 31 -29 76z" />
<glyph unicode="&#xf8;" d="M115 -2l123 156q-123 150 -123 362q0 213 133 373t350 160q158 0 274 -88l115 145l94 -72l-123 -155q123 -150 123 -363t-133 -373q-132 -159 -350 -159q-158 0 -274 88l-115 -146zM248 516q0 -154 69 -260l482 608q-87 66 -201 66q-164 0 -258 -123q-92 -124 -92 -291z M397 168q87 -66 201 -66q164 0 256 123q94 122 94 291q0 154 -69 260z" />
<glyph unicode="&#xf9;" horiz-adv-x="1159" d="M184 324v708h127v-692q0 -238 211 -238q144 0 238 131q96 134 96 347v452h127v-1032h-127v215q-55 -105 -150 -168t-204 -63q-148 0 -233 90t-85 250zM393 1434h191l143 -287h-100z" />
<glyph unicode="&#xfa;" horiz-adv-x="1159" d="M184 324v708h127v-692q0 -238 211 -238q144 0 238 131q96 134 96 347v452h127v-1032h-127v215q-55 -105 -150 -168t-204 -63q-148 0 -233 90t-85 250zM442 1147l144 287h190l-233 -287h-101z" />
<glyph unicode="&#xfb;" horiz-adv-x="1159" d="M184 324v708h127v-692q0 -238 211 -238q144 0 238 131q96 134 96 347v452h127v-1032h-127v215q-55 -105 -150 -168t-204 -63q-148 0 -233 90t-85 250zM270 1159l295 309h45l295 -309h-147l-170 182l-170 -182h-148z" />
<glyph unicode="&#xfc;" horiz-adv-x="1159" d="M184 324v708h127v-692q0 -238 211 -238q144 0 238 131q96 134 96 347v452h127v-1032h-127v215q-55 -105 -150 -168t-204 -63q-148 0 -233 90t-85 250zM334 1331q0 43 29 73t71 30q43 0 72 -30t29 -73q0 -41 -29 -69.5t-72 -28.5t-71.5 28.5t-28.5 69.5zM649 1331 q0 43 29 73t70 30q43 0 72.5 -30t29.5 -73q0 -41 -29.5 -69.5t-72.5 -28.5q-41 0 -70 28.5t-29 69.5z" />
<glyph unicode="&#xfd;" horiz-adv-x="925" d="M35 1032h133l307 -835l287 835h133l-512 -1450h-127l150 424zM354 1147l144 287h190l-233 -287h-101z" />
<glyph unicode="&#xfe;" horiz-adv-x="1226" d="M199 -418v1868h131v-563q55 72 145.5 117t175.5 45q216 0 338 -152q123 -150 123 -381q0 -233 -123 -383q-119 -149 -338 -149q-96 0 -187.5 44t-133.5 107v-553h-131zM313 516q0 -187 87.5 -300.5t244.5 -113.5t245.5 113.5t88.5 300.5q0 181 -88 297q-88 117 -246 117 q-157 0 -246 -117q-86 -118 -86 -297z" />
<glyph unicode="&#xff;" horiz-adv-x="925" d="M35 1032h133l307 -835l287 835h133l-512 -1450h-127l150 424zM217 1331q0 43 29 73t71 30q43 0 72 -30t29 -73q0 -41 -29 -69.5t-72 -28.5t-71.5 28.5t-28.5 69.5zM532 1331q0 43 29 73t70 30q43 0 72.5 -30t29.5 -73q0 -41 -29.5 -69.5t-72.5 -28.5q-41 0 -70 28.5 t-29 69.5z" />
<glyph unicode="&#x152;" horiz-adv-x="2199" d="M121 717q0 330 182 530q185 203 447 203q148 0 277.5 -69t215.5 -193v246h809v-127h-674v-480h551v-127h-551v-573h695v-127h-830v246q-86 -124 -215.5 -193t-277.5 -69q-262 0 -447 200q-182 203 -182 533zM262 717q0 -291 137 -449q139 -157 351 -157q209 0 348 157 q139 160 139 449t-139 446q-139 160 -348 160q-212 0 -351 -160q-137 -155 -137 -446z" />
<glyph unicode="&#x153;" horiz-adv-x="1964" d="M115 516q0 213 133 373t350 160q134 0 241 -66t171 -184q58 118 161.5 184t235.5 66q201 0 326 -131q127 -133 127 -345v-57h-779v-18q5 -181 91.5 -288.5t234.5 -107.5q114 0 188.5 51.5t126.5 161.5l115 -47q-77 -152 -178.5 -218t-251.5 -66q-133 0 -236.5 65.5 t-160.5 183.5q-64 -117 -171 -183t-241 -66q-218 0 -350 159q-133 160 -133 373zM248 516q0 -167 92 -291q94 -123 258 -123t256 123q94 122 94 291t-94 291q-92 123 -256 123t-258 -123q-92 -124 -92 -291zM1092 635h637q-19 138 -103 216.5t-219 78.5q-122 0 -205 -80.5 t-110 -214.5z" />
<glyph unicode="&#x178;" horiz-adv-x="1024" d="M12 1434h158l342 -678l342 678h158l-432 -811v-623h-136v623zM254 1733q0 43 28.5 72.5t71.5 29.5t72 -29.5t29 -72.5q0 -41 -29 -70t-72 -29q-42 0 -71 29t-29 70zM569 1733q0 43 29 72.5t70 29.5q43 0 72.5 -29.5t29.5 -72.5q0 -41 -29.5 -70t-72.5 -29q-41 0 -70 29 t-29 70z" />
<glyph unicode="&#x2c6;" horiz-adv-x="757" d="M61 1159l295 309h45l295 -309h-147l-170 182l-170 -182h-148z" />
<glyph unicode="&#x2dc;" horiz-adv-x="772" d="M41 1278q76 141 203 141q74 0 147 -43q77 -41 121 -41q78 0 137 74l82 -63q-77 -142 -203 -142q-72 0 -149 41q-73 43 -119 43q-78 0 -137 -74z" />
<glyph unicode="&#x2000;" horiz-adv-x="969" />
<glyph unicode="&#x2001;" horiz-adv-x="1939" />
<glyph unicode="&#x2002;" horiz-adv-x="969" />
<glyph unicode="&#x2003;" horiz-adv-x="1939" />
<glyph unicode="&#x2004;" horiz-adv-x="646" />
<glyph unicode="&#x2005;" horiz-adv-x="484" />
<glyph unicode="&#x2006;" horiz-adv-x="323" />
<glyph unicode="&#x2007;" horiz-adv-x="323" />
<glyph unicode="&#x2008;" horiz-adv-x="242" />
<glyph unicode="&#x2009;" horiz-adv-x="387" />
<glyph unicode="&#x200a;" horiz-adv-x="107" />
<glyph unicode="&#x2010;" horiz-adv-x="964" d="M145 592v115h674v-115h-674z" />
<glyph unicode="&#x2011;" horiz-adv-x="964" d="M145 592v115h674v-115h-674z" />
<glyph unicode="&#x2012;" horiz-adv-x="964" d="M145 592v115h674v-115h-674z" />
<glyph unicode="&#x2013;" horiz-adv-x="1140" d="M147 592v115h838v-115h-838z" />
<glyph unicode="&#x2014;" horiz-adv-x="1560" d="M147 592v115h1258v-115h-1258z" />
<glyph unicode="&#x2018;" horiz-adv-x="563" d="M123 1450h211l125 -377h-101z" />
<glyph unicode="&#x2019;" horiz-adv-x="563" d="M104 1073l125 377h211l-235 -377h-101z" />
<glyph unicode="&#x201a;" horiz-adv-x="563" d="M104 -29l125 377h211l-235 -377h-101z" />
<glyph unicode="&#x201c;" horiz-adv-x="856" d="M123 1450h211l125 -377h-101zM416 1450h211l125 -377h-101z" />
<glyph unicode="&#x201d;" horiz-adv-x="856" d="M104 1073l125 377h211l-235 -377h-101zM397 1073l125 377h211l-235 -377h-101z" />
<glyph unicode="&#x201e;" horiz-adv-x="856" d="M104 -29l125 377h211l-235 -377h-101zM397 -29l125 377h211l-235 -377h-101z" />
<glyph unicode="&#x2022;" horiz-adv-x="622" d="M179 676q0 56 38 94t94.5 38t94.5 -38t38 -94t-38 -94t-94.5 -38t-94.5 38t-38 94z" />
<glyph unicode="&#x2026;" horiz-adv-x="1593" d="M186 100q0 44 30.5 74.5t74.5 30.5t74 -30.5t30 -74.5t-30 -74t-74 -30q-45 0 -75 29t-30 75zM692 100q0 33 19 59t46 37.5t58.5 6.5t54.5 -29q24 -23 29.5 -54.5t-6 -58.5t-37.5 -46t-59 -19q-47 0 -76 28.5t-29 75.5zM1198 100q0 44 30.5 74.5t74.5 30.5t74 -30.5 t30 -74.5t-30 -74t-74 -30q-45 0 -75 29t-30 75z" />
<glyph unicode="&#x202f;" horiz-adv-x="387" />
<glyph unicode="&#x2039;" horiz-adv-x="763" d="M102 592v86l539 399v-139l-405 -303l405 -303v-139z" />
<glyph unicode="&#x203a;" horiz-adv-x="763" d="M123 193v139l405 303l-405 303v139l539 -399v-86z" />
<glyph unicode="&#x205f;" horiz-adv-x="484" />
<glyph unicode="&#x20ac;" horiz-adv-x="1253" d="M72 510l59 115h102v184h-161l59 115h111q33 243 172.5 384.5t357.5 141.5q255 0 391 -238l-112 -61q-85 184 -279 184q-160 0 -263 -106.5t-134 -304.5h528l-59 -115h-479v-184h538l-59 -115h-469q31 -198 134 -305t263 -107q193 0 279 185l112 -62q-135 -237 -391 -237 q-218 0 -357.5 141.5t-172.5 384.5h-170z" />
<glyph unicode="&#x2122;" horiz-adv-x="1660" d="M61 1343v91h568v-91h-234v-729h-100v729h-234zM784 614v820h107l242 -578l241 578h107v-820h-101v605l-219 -529h-57l-219 529v-605h-101z" />
<glyph unicode="&#x25fc;" horiz-adv-x="1034" d="M0 0v1034h1034v-1034h-1034z" />
</font>
</defs>
</svg>
