<?xml version="1.0" encoding="UTF-8" standalone="no"?>
<!DOCTYPE svg PUBLIC "-//W3C//DTD SVG 1.1//EN" "http://www.w3.org/Graphics/SVG/1.1/DTD/svg11.dtd">
<svg xmlns="http://www.w3.org/2000/svg">
<metadata/>
<defs>
<font id="apercuregular" horiz-adv-x="1212">
<font-face units-per-em="2048" ascent="1638" descent="-410"/>
<missing-glyph horiz-adv-x="548"/>
<glyph unicode="ﬁ" horiz-adv-x="1114" d="M96 877v155h148v33q0 183 114 285q112 100 285 100q169 0 264 -68l-37 -147q-100 59 -229 59q-107 0 -166 -58t-59 -169v-35h526v-1032h-172v877h-354v-877h-172v877h-148z"/>
<glyph unicode="ﬂ" horiz-adv-x="1206" d="M96 877v155h148v53q0 181 106 271q107 94 273 94h411v-1450h-172v1294h-241q-94 0 -149.5 -54.5t-55.5 -152.5v-55h237v-155h-237v-877h-172v877h-148z"/>
<glyph horiz-adv-x="0"/>
<glyph horiz-adv-x="0"/>
<glyph horiz-adv-x="682"/>
<glyph unicode="" horiz-adv-x="548"/>
<glyph unicode=" " horiz-adv-x="548"/>
<glyph unicode="	" horiz-adv-x="548"/>
<glyph unicode=" " horiz-adv-x="548"/>
<glyph unicode="!" horiz-adv-x="706" d="M215 133q0 62 41 104t102 42t102.5 -42t41.5 -104q0 -60 -41 -99.5t-103 -39.5t-102.5 39.5t-40.5 99.5zM242 1434h233l-49 -1024h-135z"/>
<glyph unicode="&quot;" horiz-adv-x="903" d="M180 1450h230l-52 -475h-127zM494 1450h229l-51 -475h-127z"/>
<glyph unicode="#" horiz-adv-x="1478" d="M147 426v139h267l61 303h-246v140h275l88 426h149l-88 -426h291l86 426h150l-86 -426h237v-140h-266l-61 -303h245v-139h-274l-88 -426h-150l88 426h-290l-86 -426h-150l86 426h-238zM563 565h291l61 303h-290z"/>
<glyph unicode="$" horiz-adv-x="1071" d="M82 371l156 94q44 -155 114.5 -232t192.5 -77q124 0 194 82q56 68 56 170q0 88 -65 149.5t-206 128.5q-84 38 -134.5 69t-106.5 79q-107 95 -107 251q0 135 81 234.5t206 124.5v174h164v-176q180 -35 274 -221l-145 -95q-48 85 -101 119.5t-127 34.5q-72 0 -122 -53.5 t-50 -126.5q0 -52 19 -91t65 -75q58 -41 82 -53l111 -58q116 -58 188 -112q75 -56 112.5 -125.5t41.5 -173.5q0 -173 -111 -293q-95 -106 -237 -127v-176h-164v174q-145 25 -247.5 128t-133.5 253z"/>
<glyph unicode="%" horiz-adv-x="1724" d="M119 1122q0 138 94 232q96 96 233 96q138 0 234 -96q94 -94 94 -232q0 -139 -94 -233t-234 -94q-139 0 -233 94t-94 233zM258 23l1102 1470l102 -80l-1102 -1472zM268 1122q0 -80 47 -133q48 -51 131 -51q84 0 129 51q50 53 50 133q0 78 -50 131q-48 54 -129 54 q-80 0 -131 -54q-47 -53 -47 -131zM950 311q0 138 94 232q96 96 234 96q137 0 233 -96q95 -95 95 -232q0 -138 -95 -233q-94 -94 -233 -94q-140 0 -234 94t-94 233zM1100 311q0 -80 47 -133q48 -51 131 -51q84 0 129 51q49 52 49 133q0 79 -49 131q-48 54 -129 54 q-80 0 -131 -54q-47 -53 -47 -131z"/>
<glyph unicode="&amp;" horiz-adv-x="1386" d="M154 410q0 149 79 262q84 116 197 174q-125 168 -125 299q0 132 90 219q92 86 228 86q146 0 232.5 -81t86.5 -206q0 -88 -51 -174q-58 -98 -227 -186l299 -379q37 76 96 244l115 -125q-55 -153 -107 -252l229 -291h-206l-121 152q-146 -168 -383 -168q-198 0 -315 114.5 t-117 311.5zM322 406q0 -120 75.5 -191.5t188.5 -71.5q175 0 284 133l-352 453q-196 -111 -196 -323zM469 1137q0 -95 100 -224q108 54 159.5 109.5t51.5 130.5q0 64 -44.5 107t-112.5 43t-111 -46.5t-43 -119.5z"/>
<glyph unicode="'" horiz-adv-x="589" d="M180 1450h230l-52 -475h-127z"/>
<glyph unicode="(" horiz-adv-x="598" d="M145 717q0 472 220 819h172q-215 -341 -215 -819t215 -819h-172q-220 347 -220 819z"/>
<glyph unicode=")" horiz-adv-x="598" d="M61 -102q215 341 215 819t-215 819h172q220 -347 220 -819t-220 -819h-172z"/>
<glyph unicode="*" horiz-adv-x="999" d="M119 1122l43 133l268 -88v283h139v-283l269 88l43 -133l-267 -88l164 -227l-112 -80l-166 227l-166 -227l-113 80l164 227z"/>
<glyph unicode="+" horiz-adv-x="1163" d="M133 578v151h375v375h151v-375h375v-151h-375v-375h-151v375h-375z"/>
<glyph unicode="," horiz-adv-x="651" d="M139 -219l135 444h234l-238 -444h-131z"/>
<glyph unicode="-" horiz-adv-x="985" d="M145 573v152h695v-152h-695z"/>
<glyph unicode="." horiz-adv-x="626" d="M184 121q0 54 37 91.5t92 37.5q54 0 91.5 -37.5t37.5 -91.5q0 -55 -37.5 -92t-91.5 -37q-55 0 -92 37t-37 92z"/>
<glyph unicode="/" horiz-adv-x="1112" d="M39 -102l893 1638h172l-893 -1638h-172z"/>
<glyph unicode="0" horiz-adv-x="1277" d="M135 717q0 343 129 536q129 197 375 197t375 -197q129 -193 129 -536t-129 -539q-129 -194 -375 -194t-375 194q-129 196 -129 539zM315 717q0 -271 82 -420q83 -150 242 -150t242 150q82 149 82 420t-82 420t-242 149t-242 -149t-82 -420z"/>
<glyph unicode="1" horiz-adv-x="770" d="M152 1022v188l368 224h64v-1434h-168v1176z"/>
<glyph unicode="2" horiz-adv-x="1167" d="M147 0v80l547 700q67 85 92 144.5t25 128.5q0 99 -53 164q-57 69 -172 69q-99 0 -162 -67t-74 -179l-172 33q9 158 125 268q118 109 283 109q201 0 311 -125q90 -104 90 -272q0 -161 -115 -312l-446 -577h588v-164h-867z"/>
<glyph unicode="3" horiz-adv-x="1183" d="M125 393l172 23q41 -269 285 -269q130 0 208 81.5t78 222.5t-78 222t-208 81q-72 0 -127 -27l-72 96l328 447h-518v164h778v-56l-365 -493q18 6 58 6q164 0 272 -123q108 -120 108 -317q0 -206 -129 -338q-129 -129 -333 -129q-183 0 -310 112q-129 114 -147 297z"/>
<glyph unicode="4" horiz-adv-x="1220" d="M131 305v72l606 1057h193v-965h178v-164h-178v-305h-176v305h-623zM365 469h389v694z"/>
<glyph unicode="5" horiz-adv-x="1185" d="M160 375l174 33q13 -126 81.5 -193.5t178.5 -67.5q128 0 201 86.5t73 233.5t-73 233t-201 86q-169 0 -289 -159l-108 24l77 783h684v-164h-534l-53 -416q93 96 235 96q205 0 322 -135q116 -131 116 -348q0 -216 -122 -350q-124 -133 -328 -133q-182 0 -298 102t-136 289z "/>
<glyph unicode="6" horiz-adv-x="1181" d="M156 451q0 139 73 264l424 735h197l-311 -547q30 15 69 15q197 0 324 -136q129 -132 129 -331t-129 -334q-127 -133 -324 -133q-195 0 -325 133q-127 136 -127 334zM336 451q0 -131 77 -217.5t195 -86.5t195.5 86.5t77.5 217.5q0 136 -75.5 219.5t-197.5 83.5t-197 -83.5 t-75 -219.5z"/>
<glyph unicode="7" horiz-adv-x="987" d="M113 1270v164h817v-76l-557 -1358h-180l526 1270h-606z"/>
<glyph unicode="8" horiz-adv-x="1196" d="M154 412q0 127 56.5 221t156.5 139q-72 38 -117 120.5t-45 174.5q0 162 110 272q111 111 283 111t283 -111q110 -110 110 -272q0 -92 -45 -174.5t-117 -120.5q100 -45 156.5 -139t56.5 -221q0 -197 -129 -314q-129 -114 -315 -114t-315 114q-129 117 -129 314zM334 412 q0 -122 74 -193q75 -72 190 -72t190 72q74 71 74 193q0 121 -74 192q-75 72 -190 72t-190 -72q-74 -71 -74 -192zM377 1067q0 -99 59 -164q60 -63 162 -63q103 0 160 63q61 64 61 164t-61 164q-57 63 -160 63q-102 0 -162 -63q-59 -65 -59 -164z"/>
<glyph unicode="9" horiz-adv-x="1181" d="M156 983q0 199 127 332q129 135 325 135q198 0 324 -135q129 -132 129 -332q0 -137 -74 -264l-424 -735h-196l311 546q-28 -14 -70 -14q-195 0 -325 133q-127 136 -127 334zM336 983q0 -136 75 -219.5t197 -83.5t197.5 83.5t75.5 219.5q0 131 -77.5 217t-195.5 86 t-195 -86t-77 -217z"/>
<glyph unicode=":" horiz-adv-x="626" d="M184 121q0 54 37 91.5t92 37.5q54 0 91.5 -37.5t37.5 -91.5q0 -55 -37.5 -92t-91.5 -37q-55 0 -92 37t-37 92zM184 825q0 54 37 91.5t92 37.5q54 0 91.5 -37.5t37.5 -91.5q0 -55 -37.5 -92t-91.5 -37q-55 0 -92 37t-37 92z"/>
<glyph unicode=";" horiz-adv-x="626" d="M74 -219l135 444h233l-237 -444h-131zM180 825q0 54 37 91.5t92 37.5q54 0 91.5 -37.5t37.5 -91.5q0 -55 -37.5 -92t-91.5 -37q-55 0 -92 37t-37 92z"/>
<glyph unicode="&lt;" horiz-adv-x="931" d="M102 545v180l715 379v-176l-547 -293l547 -293v-176z"/>
<glyph unicode="=" horiz-adv-x="1226" d="M205 389v152h817v-152h-817zM205 729v152h817v-152h-817z"/>
<glyph unicode="&gt;" horiz-adv-x="931" d="M115 166v176l547 293l-547 293v176l714 -379v-180z"/>
<glyph unicode="?" horiz-adv-x="917" d="M98 1143q31 144 128 225.5t247 81.5q158 0 254 -90q92 -86 92 -215q0 -168 -155 -244l-207 -100q-101 -55 -101 -142q0 -49 28.5 -76.5t78.5 -27.5q94 0 147 121l133 -47q-73 -217 -274 -217q-123 0 -196.5 69t-73.5 187q0 170 174 258q32 18 101 46t87 38q90 50 90 145 q0 68 -45 107q-51 45 -133 45q-78 0 -134 -51.5t-81 -139.5zM334 129q0 60 39 99.5t96 39.5q60 0 99.5 -39.5t39.5 -99.5q0 -57 -39.5 -96t-99.5 -39q-57 0 -96 39t-39 96z"/>
<glyph unicode="@" horiz-adv-x="1884" d="M166 616q0 390 240 621q242 233 579 233q350 0 549 -196q203 -194 203 -553q0 -242 -97.5 -371t-261.5 -129q-77 0 -138 39.5t-91 101.5q-91 -141 -268 -141q-164 0 -258.5 106t-94.5 277q0 188 117 320q121 133 313 133q160 0 228 -117l20 102h135l-47 -516 q-1 -11 -2 -22.5t-1.5 -17t-0.5 -7.5q0 -106 96 -106q179 0 179 348q0 602 -590 602q-99 0 -191.5 -28t-173.5 -87t-141.5 -142t-95.5 -200.5t-35 -255.5q0 -305 188 -481q186 -174 447 -174q132 0 244 25q114 25 256 100l57 -137q-186 -84 -281 -107q-119 -29 -276 -29 q-347 0 -580 222q-227 224 -227 587zM696 598q0 -107 51.5 -166t147.5 -59q114 0 182 87t68 220q0 225 -201 225q-117 0 -182.5 -84t-65.5 -223z"/>
<glyph unicode="A" d="M25 0l495 1434h172l496 -1434h-180l-127 383h-549l-127 -383h-180zM389 555h434l-217 645z"/>
<glyph unicode="B" horiz-adv-x="1265" d="M199 0v1434h483q189 0 296 -98t107 -271q0 -91 -44 -166.5t-117 -114.5q107 -43 169 -137t62 -221q0 -198 -118.5 -312t-327.5 -114h-510zM379 172h303q287 0 287 254q0 252 -287 252h-303v-506zM379 850h293q106 0 166.5 53.5t60.5 151.5q0 99 -60.5 153t-166.5 54h-293 v-412z"/>
<glyph unicode="C" horiz-adv-x="1409" d="M113 717q0 346 188 540q190 193 459 193q216 0 364 -121t197 -313l-174 -51q-102 313 -387 313q-204 0 -334 -145q-127 -145 -127 -416t127 -416q130 -145 334 -145q285 0 387 313l174 -51q-50 -196 -197 -316q-145 -118 -364 -118q-270 0 -459 192q-188 194 -188 541z "/>
<glyph unicode="D" horiz-adv-x="1363" d="M199 0v1434h393q279 0 469 -193q190 -190 190 -524t-190 -527q-190 -190 -469 -190h-393zM379 172h182q82 0 153.5 18t135.5 59t110 102.5t72.5 155t26.5 210.5t-26.5 210.5t-72.5 155t-110 102.5t-135.5 59t-153.5 18h-182v-1090z"/>
<glyph unicode="E" horiz-adv-x="1159" d="M199 0v1434h823v-172h-643v-412h520v-172h-520v-506h663v-172h-843z"/>
<glyph unicode="F" horiz-adv-x="1101" d="M199 0v1434h833v-172h-653v-428h530v-172h-530v-662h-180z"/>
<glyph unicode="G" horiz-adv-x="1462" d="M113 717q0 352 188 543q187 190 459 190q219 0 366 -115.5t197 -318.5l-174 -51q-102 313 -389 313q-204 0 -334 -145q-127 -145 -127 -416t127 -416q130 -145 334 -145q177 0 280 106.5t115 288.5h-309v172h481v-723h-153l-19 197q-56 -97 -161.5 -155t-241.5 -58 q-266 0 -453 190q-186 189 -186 543z"/>
<glyph unicode="H" horiz-adv-x="1413" d="M199 0v1434h180v-586h655v586h180v-1434h-180v676h-655v-676h-180z"/>
<glyph unicode="I" horiz-adv-x="577" d="M199 0v1434h180v-1434h-180z"/>
<glyph unicode="J" horiz-adv-x="1042" d="M23 358l182 39q52 -241 252 -241q237 0 237 293v985h180v-994q0 -218 -118 -336q-117 -120 -299 -120q-179 0 -291 103t-143 271z"/>
<glyph unicode="K" horiz-adv-x="1222" d="M199 0v1434h180v-576l534 576h230l-582 -643l631 -791h-229l-584 723v-723h-180z"/>
<glyph unicode="L" horiz-adv-x="1067" d="M199 0v1434h180v-1262h651v-172h-831z"/>
<glyph unicode="M" horiz-adv-x="1605" d="M199 0v1434h221l383 -1010l383 1010h221v-1434h-180v1044l-361 -913h-127l-360 913v-1044h-180z"/>
<glyph unicode="N" horiz-adv-x="1435" d="M199 0v1434h211l647 -1121v1121h180v-1434h-211l-647 1116v-1116h-180z"/>
<glyph unicode="O" horiz-adv-x="1511" d="M113 717q0 344 186 536q188 197 457 197q268 0 456 -197q187 -193 187 -536t-187 -539q-188 -194 -456 -194q-269 0 -457 194q-186 195 -186 539zM299 717q0 -271 127 -416q130 -145 330 -145t327 145q129 144 129 416t-129 416q-127 145 -327 145t-330 -145 q-127 -145 -127 -416z"/>
<glyph unicode="P" horiz-adv-x="1196" d="M199 0v1434h499q200 0 313 -110t113 -300t-113 -300t-313 -110h-319v-614h-180zM379 786h330q110 0 169.5 61.5t59.5 176.5t-59.5 176.5t-169.5 61.5h-330v-476z"/>
<glyph unicode="Q" horiz-adv-x="1511" d="M113 717q0 344 186 536q188 197 457 197q268 0 456 -197q187 -193 187 -536q0 -271 -129 -465l139 -137l-131 -131l-133 133q-171 -133 -389 -133q-269 0 -457 194q-186 195 -186 539zM299 717q0 -271 127 -416q130 -145 330 -145q154 0 264 84l-168 170l131 131 l156 -158q73 134 73 334q0 272 -129 416q-127 145 -327 145t-330 -145q-127 -145 -127 -416z"/>
<glyph unicode="R" horiz-adv-x="1312" d="M199 0v1434h477q194 0 308 -101t114 -278q0 -147 -78.5 -242.5t-220.5 -124.5l428 -688h-213l-420 676h-215v-676h-180zM379 848h301q231 0 231 207t-231 207h-301v-414z"/>
<glyph unicode="S" horiz-adv-x="1071" d="M82 371l156 94q44 -155 114.5 -232t192.5 -77q124 0 194 82q56 68 56 170q0 88 -65 149.5t-206 128.5q-84 38 -134.5 69t-106.5 79q-107 95 -107 251t105 261q104 104 247 104q138 0 226 -57t147 -172l-145 -95q-48 85 -100.5 118.5t-127.5 33.5q-73 0 -122.5 -52.5 t-49.5 -125.5q0 -52 19 -91t65 -75q58 -41 82 -53l111 -58q116 -58 188 -112q75 -56 112.5 -125.5t41.5 -173.5q0 -173 -111 -293q-123 -135 -319 -135q-175 0 -301 108q-124 106 -162 279z"/>
<glyph unicode="T" horiz-adv-x="1069" d="M31 1262v172h1007v-172h-413v-1262h-181v1262h-413z"/>
<glyph unicode="U" horiz-adv-x="1339" d="M168 487v947h180v-959q0 -143 86 -231t236 -88t235.5 87.5t85.5 231.5v959h180v-947q0 -239 -143 -370q-142 -133 -358 -133t-361 133q-141 132 -141 370z"/>
<glyph unicode="V" horiz-adv-x="1200" d="M16 1434h191l393 -1178l393 1178h191l-494 -1434h-180z"/>
<glyph unicode="W" horiz-adv-x="1851" d="M57 1434h191l291 -1168l305 1016h164l305 -1016l291 1168h190l-383 -1434h-188l-297 985l-297 -985h-189z"/>
<glyph unicode="X" horiz-adv-x="1179" d="M35 0l452 770l-389 664h207l285 -488l284 488h207l-389 -664l453 -770h-207l-348 594l-348 -594h-207z"/>
<glyph unicode="Y" horiz-adv-x="1036" d="M8 1434h199l311 -635l311 635h199l-420 -816v-618h-180v618z"/>
<glyph unicode="Z" horiz-adv-x="1136" d="M92 0v86l668 1176h-643v172h899v-86l-668 -1176h688v-172h-944z"/>
<glyph unicode="[" horiz-adv-x="661" d="M199 -102v1638h385v-156h-222v-1327h222v-155h-385z"/>
<glyph unicode="\" horiz-adv-x="1112" d="M8 1536h172l893 -1638h-172z"/>
<glyph unicode="]" horiz-adv-x="661" d="M78 53h221v1327h-221v156h385v-1638h-385v155z"/>
<glyph unicode="^" horiz-adv-x="1138" d="M119 862l381 572h139l381 -572h-170l-281 416l-280 -416h-170z"/>
<glyph unicode="_" horiz-adv-x="940" d="M61 0h818v-152h-818v152z"/>
<glyph unicode="`" horiz-adv-x="466" d="M39 1442h248l139 -295h-139z"/>
<glyph unicode="a" horiz-adv-x="1060" d="M115 297q0 162 124 250t343 88h168v45q0 213 -226 213q-82 0 -140 -43.5t-75 -118.5l-151 35q20 130 119.5 206.5t246.5 76.5q185 0 291.5 -99t106.5 -291v-659h-136l-28 145q-112 -161 -324 -161q-145 0 -232 80t-87 233zM291 297q0 -74 44.5 -116t125.5 -42 q118 0 203 76q86 77 86 240v24h-185q-131 0 -202.5 -47.5t-71.5 -134.5z"/>
<glyph unicode="b" horiz-adv-x="1230" d="M188 0v1450h172v-541q25 46 119 95q86 45 183 45q218 0 338 -144.5t120 -388.5t-120 -388t-338 -144q-91 0 -177 41t-125 102v-127h-172zM346 516q0 -169 80.5 -273t218.5 -104q134 0 216.5 104.5t82.5 272.5t-82.5 272.5t-216.5 104.5q-138 0 -218.5 -104t-80.5 -273z "/>
<glyph unicode="c" horiz-adv-x="1101" d="M111 516q0 224 120 377q123 156 349 156q306 0 432 -285l-150 -62q-83 191 -282 191q-139 0 -216 -103.5t-77 -273.5t77 -273.5t216 -103.5q199 0 282 191l150 -62q-126 -284 -432 -284q-226 0 -349 153q-120 156 -120 379z"/>
<glyph unicode="d" horiz-adv-x="1230" d="M111 516q0 244 120 388.5t338 144.5q97 0 183 -45q93 -49 118 -95v541h172v-1450h-172v127q-39 -61 -124.5 -102t-176.5 -41q-218 0 -338 144t-120 388zM287 516q0 -168 82.5 -272.5t216.5 -104.5q138 0 218.5 104t80.5 273t-80.5 273t-218.5 104q-134 0 -216.5 -104.5 t-82.5 -272.5z"/>
<glyph unicode="e" horiz-adv-x="1146" d="M111 516q0 224 120 377q123 156 347 156q219 0 342 -144q124 -139 124 -346v-80h-757q8 -156 84 -248t207 -92q107 0 174 47.5t112 149.5l152 -66q-72 -152 -175 -219t-263 -67q-224 0 -347 153q-120 156 -120 379zM297 635h567q-26 121 -98.5 189.5t-187.5 68.5 q-113 0 -184.5 -68t-96.5 -190z"/>
<glyph unicode="f" horiz-adv-x="745" d="M96 877v155h148v68q0 172 86.5 261t247.5 89q91 0 147 -33l-35 -151q-61 28 -115 28q-84 0 -121.5 -46.5t-37.5 -147.5v-68h237v-155h-237v-877h-172v877h-148z"/>
<glyph unicode="g" horiz-adv-x="1038" d="M109 -94q0 131 96 215q-70 58 -70 164q0 126 125 190q-76 91 -76 225q0 155 103 250q105 97 258 97q101 0 186 -46l184 105l78 -141l-139 -78q51 -77 51 -187q0 -156 -102 -251q-104 -93 -258 -93q-103 0 -178 37q-68 -35 -68 -100q0 -86 117 -86h243q150 0 237 -75 t87 -210q0 -174 -119 -265t-317 -91q-200 0 -319 91t-119 249zM281 -88q0 -89 69.5 -142t196.5 -53q126 0 193 51t67 138q0 153 -174 153h-209q-14 0 -76 4q-67 -52 -67 -151zM352 700q0 -92 56 -145q56 -51 137 -51t137 51q55 52 55 145q0 94 -55 146q-56 54 -137.5 54 t-136.5 -54q-56 -53 -56 -146z"/>
<glyph unicode="h" horiz-adv-x="1198" d="M188 0v1450h172v-610q50 97 145.5 153t213.5 56q144 0 223.5 -86t79.5 -246v-717h-172v682q0 211 -178 211q-122 0 -217 -127t-95 -328v-438h-172z"/>
<glyph unicode="i" horiz-adv-x="552" d="M147 1319q0 56 37 93.5t92 37.5t92.5 -37.5t37.5 -93.5q0 -54 -37.5 -90.5t-92.5 -36.5t-92 36.5t-37 90.5zM190 0v1032h172v-1032h-172z"/>
<glyph unicode="j" horiz-adv-x="552" d="M6 -270q102 27 145.5 77.5t43.5 155.5v1069h172v-1085q0 -157 -81.5 -254.5t-234.5 -126.5zM147 1319q0 56 37 93.5t92 37.5t92.5 -37.5t37.5 -93.5q0 -54 -37.5 -90.5t-92.5 -36.5t-92 36.5t-37 90.5z"/>
<glyph unicode="k" horiz-adv-x="1046" d="M188 0v1450h172v-850l402 432h221l-438 -473l471 -559h-219l-437 518v-518h-172z"/>
<glyph unicode="l" horiz-adv-x="528" d="M184 0v1450h172v-1450h-172z"/>
<glyph unicode="m" horiz-adv-x="1765" d="M188 0v1032h172v-190q106 207 322 207q106 0 178.5 -56.5t97.5 -158.5q114 215 336 215q139 0 215 -84.5t76 -237.5v-727h-172v690q0 203 -166 203q-119 0 -196.5 -128t-77.5 -341v-424h-172v690q0 203 -166 203q-119 0 -197 -128t-78 -341v-424h-172z"/>
<glyph unicode="n" horiz-adv-x="1181" d="M188 0v1032h172v-190q118 207 342 207q142 0 223 -84.5t81 -237.5v-727h-172v682q0 211 -179 211q-120 0 -209 -127q-86 -127 -86 -334v-432h-172z"/>
<glyph unicode="o" d="M111 516q0 219 135 375q140 158 360 158q222 0 359 -158q137 -155 137 -375q0 -222 -137 -377q-134 -155 -359 -155q-223 0 -360 155q-135 156 -135 377zM287 516q0 -150 84 -266q85 -111 235 -111q152 0 234 111q86 115 86 266q0 152 -86 264q-82 113 -234 113 q-150 0 -235 -113q-84 -113 -84 -264z"/>
<glyph unicode="p" horiz-adv-x="1230" d="M188 -418v1450h172v-127q39 61 125 102.5t177 41.5q218 0 338 -144.5t120 -388.5t-120 -388t-338 -144q-97 0 -183 45q-95 50 -119 94v-541h-172zM346 516q0 -169 80.5 -273t218.5 -104q134 0 216.5 104.5t82.5 272.5t-82.5 272.5t-216.5 104.5q-138 0 -218.5 -104 t-80.5 -273z"/>
<glyph unicode="q" horiz-adv-x="1230" d="M111 516q0 244 120 388.5t338 144.5q91 0 176.5 -41.5t124.5 -102.5v127h172v-1450h-172v541q-24 -45 -118 -94q-86 -45 -183 -45q-218 0 -338 144t-120 388zM287 516q0 -168 82.5 -272.5t216.5 -104.5q138 0 218.5 104t80.5 273t-80.5 273t-218.5 104 q-134 0 -216.5 -104.5t-82.5 -272.5z"/>
<glyph unicode="r" horiz-adv-x="845" d="M188 0v1032h172v-176q44 85 130 139t174 54q81 0 141 -31l-35 -154q-63 29 -121 29q-117 0 -203 -133t-86 -369v-391h-172z"/>
<glyph unicode="s" horiz-adv-x="944" d="M104 262l146 80q83 -203 239 -203q166 0 166 162q0 90 -168 150q-39 15 -60 23.5t-59 26.5t-59.5 33t-49.5 40t-42.5 51t-25.5 62t-11 77q0 124 84 204.5t219 80.5q187 0 299 -158l-116 -100q-94 102 -189 102q-55 0 -90 -35.5t-35 -95.5q0 -37 26 -66.5t68.5 -50.5 t93.5 -41.5t102.5 -46t94 -56.5t68.5 -79.5t26 -110.5q0 -153 -91.5 -240t-250.5 -87q-140 0 -239 76.5t-146 201.5z"/>
<glyph unicode="t" horiz-adv-x="774" d="M51 877v155h178v309l172 109v-418h271v-155h-271v-568q0 -82 36 -126t102 -44q69 0 116 33l41 -149q-65 -39 -168 -39q-139 0 -219 88t-80 252v553h-178z"/>
<glyph unicode="u" horiz-adv-x="1181" d="M176 305v727h172v-682q0 -211 178 -211q121 0 207 127q88 125 88 334v432h172v-1032h-172v190q-117 -206 -342 -206q-142 0 -222.5 84t-80.5 237z"/>
<glyph unicode="v" horiz-adv-x="933" d="M39 1032h176l252 -813l252 813h176l-340 -1032h-176z"/>
<glyph unicode="w" horiz-adv-x="1511" d="M76 1032h180l211 -792l203 792h172l202 -792l211 792h181l-314 -1032h-164l-202 784l-203 -784h-164z"/>
<glyph unicode="x" horiz-adv-x="937" d="M37 0l336 545l-299 487h194l201 -327l201 327h194l-299 -487l336 -545h-194l-238 387l-238 -387h-194z"/>
<glyph unicode="y" horiz-adv-x="942" d="M31 1032h188l262 -745l256 745h181l-512 -1450h-177l164 461z"/>
<glyph unicode="z" horiz-adv-x="933" d="M102 0v74l488 803h-461v155h692v-74l-489 -802h508v-156h-738z"/>
<glyph unicode="{" horiz-adv-x="651" d="M127 639v156q92 0 128 35.5t36 127.5v373q0 92 56.5 148.5t148.5 56.5h98v-156h-47q-49 0 -70.5 -21t-21.5 -71v-370q0 -92 -36 -136.5t-112 -64.5q76 -20 112 -64.5t36 -136.5v-371q0 -49 21.5 -70.5t70.5 -21.5h47v-155h-98q-92 0 -148.5 56t-56.5 148v373 q0 92 -36 128t-128 36z"/>
<glyph unicode="|" horiz-adv-x="561" d="M199 -102v1638h163v-1638h-163z"/>
<glyph unicode="}" horiz-adv-x="651" d="M57 53h47q50 0 71.5 21.5t21.5 70.5v371q0 93 35.5 137t111.5 64q-76 20 -111.5 64t-35.5 137v370q0 49 -21.5 70.5t-71.5 21.5h-47v156h99q92 0 148 -56.5t56 -148.5v-373q0 -92 36 -127.5t128 -35.5v-156q-92 0 -128 -36t-36 -128v-373q0 -92 -56 -148t-148 -56h-99 v155z"/>
<glyph unicode="~" horiz-adv-x="1286" d="M164 651q44 85 116 134t154 49q90 0 209 -52q117 -51 188 -51q114 0 191 92l100 -104q-44 -85 -115 -132.5t-155 -47.5q-92 0 -209 51q-114 51 -188 51q-114 0 -191 -92z"/>
<glyph unicode="¡" horiz-adv-x="706" d="M205 879q0 60 40.5 99.5t102.5 39.5t103 -39.5t41 -99.5q0 -62 -41.5 -104t-102.5 -42t-102 42t-41 104zM231 -422l50 1024h135l49 -1024h-234z"/>
<glyph unicode="¢" horiz-adv-x="1146" d="M123 717q0 204 100 348q103 152 287 178v293h164v-291q244 -35 350 -280l-150 -62q-80 189 -282 189q-139 0 -216 -103t-77 -272t77 -272t216 -103q202 0 282 188l150 -61q-107 -246 -350 -281v-290h-164v292q-182 26 -287 177q-100 147 -100 350z"/>
<glyph unicode="£" horiz-adv-x="1112" d="M92 111q122 116 174.5 208.5t52.5 194.5q0 77 -20 150h-166v163h109q-37 110 -37 211q0 189 108 300.5t287 111.5q142 0 246.5 -74t154.5 -209l-153 -71q-44 102 -102.5 146t-145.5 44q-101 0 -162 -65t-61 -185q0 -114 33 -209h335v-163h-282q14 -60 14 -129 q0 -208 -162 -363q82 55 179 55q60 0 137 -41q74 -39 114 -39q56 0 97 30.5t88 109.5l135 -74q-122 -229 -309 -229q-85 0 -178 41q-90 41 -138 41q-121 0 -231 -82z"/>
<glyph unicode="¤" horiz-adv-x="1134" d="M53 256l180 137q-72 104 -72 235.5t72 235.5l-180 137l142 142l137 -178q104 78 235.5 78t235.5 -78l137 178l141 -142l-180 -137q72 -104 72 -235.5t-72 -235.5l180 -137l-141 -141l-137 178q-104 -78 -235.5 -78t-235.5 78l-137 -178zM326 629q0 -116 65 -187 q68 -71 176 -71q109 0 174 71q68 71 68 187q0 115 -68 186q-66 72 -174 72q-107 0 -176 -72q-65 -71 -65 -186z"/>
<glyph unicode="¥" horiz-adv-x="1032" d="M23 1434h198l295 -619l295 619h199l-322 -641h238v-164h-320v-164h320v-164h-320v-301h-180v301h-320v164h320v164h-320v164h238z"/>
<glyph unicode="¦" horiz-adv-x="561" d="M199 -102v714h163v-714h-163zM199 821v715h163v-715h-163z"/>
<glyph unicode="§" horiz-adv-x="1105" d="M135 561q0 96 35.5 159.5t114.5 121.5q-84 96 -84 227q0 176 104 277q107 104 250 104q307 0 383 -303l-158 -51q-55 190 -225 190q-77 0 -129.5 -58.5t-52.5 -150.5q0 -107 78 -166q52 -36 79 -51q46 -24 115 -55q53 -24 123 -60q207 -112 207 -290q0 -96 -35.5 -159.5 t-114.5 -121.5q84 -96 84 -227q0 -177 -106 -277q-104 -104 -248 -104q-307 0 -383 303l158 51q55 -190 225 -190q77 0 129.5 58.5t52.5 150.5q0 107 -78 163q-44 35 -81 54q-37 21 -113 55q-69 31 -123 59q-207 112 -207 291zM293 580q0 -53 39 -101.5t94 -77.5l139 -63 q77 -35 137 -68q115 62 115 166q0 54 -39.5 101.5t-95.5 74.5q-38 21 -137 66q-88 40 -137 67q-115 -62 -115 -165z"/>
<glyph unicode="¨" horiz-adv-x="653" d="M41 1333q0 49 33.5 83t81.5 34q51 0 83.5 -33.5t32.5 -83.5t-32.5 -82t-83.5 -32q-48 0 -81.5 32.5t-33.5 81.5zM381 1333q0 49 33.5 83t81.5 34q51 0 83.5 -33.5t32.5 -83.5t-32.5 -82t-83.5 -32q-48 0 -81.5 32.5t-33.5 81.5z"/>
<glyph unicode="©" horiz-adv-x="1843" d="M143 717q0 339 222 569q224 230 557 230q335 0 555 -230q223 -226 223 -569t-223 -572q-220 -227 -555 -227q-333 0 -557 227q-222 233 -222 572zM307 717q0 -274 170 -459q169 -184 445 -184q275 0 444 184q170 185 170 459t-170 459q-169 184 -444 184 q-276 0 -445 -184q-170 -185 -170 -459zM520 717q0 212 121 327t281 115q135 0 232.5 -72.5t121.5 -195.5l-143 -35q-53 160 -211 160q-113 0 -179.5 -75.5t-66.5 -223.5t66.5 -223.5t179.5 -75.5q158 0 211 160l143 -35q-25 -123 -122 -196t-232 -73q-162 0 -281 113 q-121 115 -121 330z"/>
<glyph unicode="ª" horiz-adv-x="894" d="M129 852q0 128 96.5 196t268.5 68h133v35q0 168 -178 168q-64 0 -110.5 -34t-59.5 -93l-119 27q20 99 101.5 161t197.5 62q144 0 223.5 -77.5t79.5 -227.5v-523h-111l-18 119q-89 -127 -256 -127q-113 0 -180.5 63.5t-67.5 182.5zM264 852q0 -59 35.5 -91t99.5 -32 q97 0 162.5 64t65.5 182v26h-146q-102 0 -159.5 -40t-57.5 -109z"/>
<glyph unicode="«" horiz-adv-x="1251" d="M98 571v127l568 408v-184l-400 -287l400 -287v-184zM569 571v127l568 408v-184l-400 -287l400 -287v-184z"/>
<glyph unicode="¬" horiz-adv-x="1189" d="M141 641v156h887v-506h-172v350h-715z"/>
<glyph unicode="­" horiz-adv-x="985" d="M145 573v152h695v-152h-695z"/>
<glyph unicode="®" horiz-adv-x="1843" d="M143 717q0 339 222 569q224 230 557 230q335 0 555 -230q223 -226 223 -569t-223 -572q-220 -227 -555 -227q-333 0 -557 227q-222 233 -222 572zM307 717q0 -274 170 -459q169 -184 445 -184q275 0 444 184q170 185 170 459t-170 459q-169 184 -444 184 q-276 0 -445 -184q-170 -185 -170 -459zM635 281v872h313q129 0 200 -66.5t71 -183.5q0 -93 -53.5 -158.5t-139.5 -82.5l260 -381h-168l-258 372h-78v-372h-147zM782 797h164q125 0 125 106q0 107 -125 107h-164v-213z"/>
<glyph unicode="¯" horiz-adv-x="559" d="M25 1294v156h510v-156h-510z"/>
<glyph unicode="°" horiz-adv-x="729" d="M135 1214q0 98 64 162q66 66 166 66q97 0 163 -66t66 -162q0 -97 -66 -163q-64 -64 -163 -64q-102 0 -166 64t-64 163zM267 1215q0 -45 26 -74q26 -26 71.5 -26t71.5 26q26 29 26 74t-26 71q-26 29 -71.5 29t-71.5 -29q-26 -26 -26 -71z"/>
<glyph unicode="±" horiz-adv-x="1163" d="M133 0v152h901v-152h-901zM133 741v152h375v375h151v-375h375v-152h-375v-374h-151v374h-375z"/>
<glyph unicode="²" horiz-adv-x="782" d="M127 614v52l305 376q68 83 68 158q0 119 -111 119q-50 0 -82.5 -37.5t-38.5 -103.5l-131 34q11 101 80.5 165.5t171.5 64.5q115 0 180.5 -63.5t65.5 -174.5q0 -115 -78 -211l-211 -256h309v-123h-528z"/>
<glyph unicode="³" horiz-adv-x="796" d="M127 850l131 18q7 -65 45 -102t96 -37q66 0 101 42t35 112q0 68 -35.5 106.5t-100.5 38.5q-44 0 -75 -22l-64 84l168 221h-262v123h457v-48l-193 -258q106 0 173 -68t67 -177q0 -122 -75 -199.5t-196 -77.5q-115 0 -189.5 67t-82.5 177z"/>
<glyph unicode="´" horiz-adv-x="466" d="M41 1147l139 295h248l-248 -295h-139z"/>
<glyph unicode="µ" horiz-adv-x="1181" d="M176 -418v1450h172v-682q0 -211 178 -211q121 0 207 127q88 125 88 334v432h172v-1032h-172v190q-117 -206 -342 -206q-70 0 -131 22v-424h-172z"/>
<glyph unicode="¶" horiz-adv-x="1402" d="M123 1038q0 164 115 279q117 117 280 117h750v-156h-127v-1696h-172v1696h-279v-1696h-172v1061q-162 0 -280 115q-115 118 -115 280z"/>
<glyph unicode="·" horiz-adv-x="626" d="M184 715q0 54 37 91.5t92 37.5q54 0 91.5 -37.5t37.5 -91.5q0 -55 -37.5 -92t-91.5 -37q-55 0 -92 37t-37 92z"/>
<glyph unicode="¸" horiz-adv-x="405" d="M20 -389l222 266h143l-170 -358z"/>
<glyph unicode="¹" horiz-adv-x="598" d="M117 1165v144l260 125h45v-820h-129v633z"/>
<glyph unicode="º" horiz-adv-x="1056" d="M141 1024q0 172 105 295q108 123 282 123q173 0 281 -123q106 -121 106 -295q0 -176 -106 -297q-109 -121 -281 -121q-173 0 -282 121q-105 123 -105 297zM276 1024q0 -118 66 -209q67 -88 186 -88t183 88q67 88 67 209t-65 207q-64 88 -185 88q-119 0 -186 -88 q-66 -87 -66 -207z"/>
<glyph unicode="»" horiz-adv-x="1251" d="M115 164v184l399 287l-399 287v184l567 -408v-127zM586 164v184l399 287l-399 287v184l567 -408v-127z"/>
<glyph unicode="¼" horiz-adv-x="1626" d="M160 1165v144l260 125h45v-820h-129v633zM213 23l1102 1470l102 -80l-1102 -1472zM877 158v53l329 608h148v-538h96v-123h-96v-158h-129v158h-348zM1044 281h181v348z"/>
<glyph unicode="½" horiz-adv-x="1759" d="M160 1165v144l260 125h45v-820h-129v633zM213 23l1102 1470l102 -80l-1102 -1472zM1022 0v51l305 377q68 83 68 158q0 119 -111 119q-50 0 -82.5 -38t-38.5 -104l-131 35q11 101 80.5 165t171.5 64q115 0 180.5 -63.5t65.5 -173.5q0 -115 -78 -211l-211 -256h309v-123 h-528z"/>
<glyph unicode="¾" horiz-adv-x="1751" d="M127 850l131 18q7 -65 45 -102t96 -37q66 0 101 42t35 112q0 68 -35.5 106.5t-100.5 38.5q-44 0 -75 -22l-64 84l168 221h-262v123h457v-48l-193 -258q106 0 173 -68t67 -177q0 -122 -75 -199.5t-196 -77.5q-115 0 -189.5 67t-82.5 177zM344 23l1102 1470l102 -80 l-1102 -1472zM1001 158v53l330 608h148v-538h96v-123h-96v-158h-129v158h-349zM1169 281h181v348z"/>
<glyph unicode="¿" horiz-adv-x="917" d="M98 -133q0 167 156 244l207 100q100 54 100 141q0 49 -28 77t-78 28q-95 0 -148 -121l-133 47q73 217 275 217q123 0 196.5 -69t73.5 -187q0 -170 -174 -258q-32 -18 -101.5 -46t-87.5 -38q-90 -50 -90 -145q0 -68 45 -107q51 -45 133 -45q78 0 134 51.5t81 139.5 l160 -27q-31 -144 -128 -225.5t-247 -81.5q-158 0 -254 90q-92 86 -92 215zM309 883q0 57 40 96t100 39q57 0 96 -39t39 -96q0 -60 -39 -100t-96 -40q-60 0 -100 40t-40 100z"/>
<glyph unicode="À" d="M25 0l495 1434h172l496 -1434h-180l-127 383h-549l-127 -383h-180zM324 1843h247l140 -295h-140zM389 555h434l-217 645z"/>
<glyph unicode="Á" d="M25 0l495 1434h172l496 -1434h-180l-127 383h-549l-127 -383h-180zM389 555h434l-217 645zM481 1548l140 295h247l-247 -295h-140z"/>
<glyph unicode="Â" d="M25 0l495 1434h172l496 -1434h-180l-127 383h-549l-127 -383h-180zM272 1561l314 335h53l313 -335h-176l-164 174l-163 -174h-177zM389 555h434l-217 645z"/>
<glyph unicode="Ã" d="M25 0l495 1434h172l496 -1434h-180l-127 383h-549l-127 -383h-180zM246 1679q38 71 96 113.5t123 42.5q73 0 147 -41t121 -41q76 0 135 74l101 -80q-38 -69 -96.5 -111.5t-122.5 -42.5q-74 0 -148 41t-121 41q-77 0 -135 -73zM389 555h434l-217 645z"/>
<glyph unicode="Ä" d="M25 0l495 1434h172l496 -1434h-180l-127 383h-549l-127 -383h-180zM322 1735q0 49 33 82.5t81 33.5q51 0 84 -33t33 -83t-33 -82.5t-84 -32.5q-48 0 -81 33t-33 82zM389 555h434l-217 645zM662 1735q0 49 33 82.5t81 33.5q51 0 84 -33t33 -83t-33 -82.5t-84 -32.5 q-48 0 -81 33t-33 82z"/>
<glyph unicode="Å" d="M25 0l495 1434h172l496 -1434h-180l-127 383h-549l-127 -383h-180zM389 555h434l-217 645zM403 1739q0 86 58.5 145.5t144.5 59.5q87 0 145 -59t58 -146q0 -85 -57.5 -141t-145.5 -56q-87 0 -145 56t-58 141zM518 1741q-5 -55 41.5 -78t93 0t41.5 78q5 58 -41.5 82t-93 0 t-41.5 -82z"/>
<glyph unicode="Æ" horiz-adv-x="1699" d="M20 0l625 1434h918v-172h-643v-412h520v-172h-520v-506h663v-172h-844v383h-370l-164 -383h-185zM442 555h297v643h-20z"/>
<glyph unicode="Ç" horiz-adv-x="1409" d="M113 717q0 346 188 540q190 193 459 193q216 0 364 -121t197 -313l-174 -51q-102 313 -387 313q-204 0 -334 -145q-127 -145 -127 -416t127 -416q130 -145 334 -145q285 0 387 313l174 -51q-50 -196 -197 -316q-145 -118 -364 -118q-270 0 -459 192q-188 194 -188 541z M520 -389l221 266h144l-170 -358z"/>
<glyph unicode="È" horiz-adv-x="1159" d="M199 0v1434h823v-172h-643v-412h520v-172h-520v-506h663v-172h-843zM381 1843h248l139 -295h-139z"/>
<glyph unicode="É" horiz-adv-x="1159" d="M199 0v1434h823v-172h-643v-412h520v-172h-520v-506h663v-172h-843zM469 1548l139 295h248l-248 -295h-139z"/>
<glyph unicode="Ê" horiz-adv-x="1159" d="M199 0v1434h823v-172h-643v-412h520v-172h-520v-506h663v-172h-843zM307 1561l314 335h53l313 -335h-176l-164 174l-164 -174h-176z"/>
<glyph unicode="Ë" horiz-adv-x="1159" d="M199 0v1434h823v-172h-643v-412h520v-172h-520v-506h663v-172h-843zM336 1735q0 49 33.5 82.5t81.5 33.5q51 0 83.5 -33t32.5 -83t-32.5 -82.5t-83.5 -32.5q-48 0 -81.5 33t-33.5 82zM676 1735q0 49 33.5 82.5t81.5 33.5q51 0 83.5 -33t32.5 -83t-32.5 -82.5t-83.5 -32.5 q-48 0 -81.5 33t-33.5 82z"/>
<glyph unicode="Ì" horiz-adv-x="577" d="M33 1843h248l139 -295h-139zM199 0v1434h180v-1434h-180z"/>
<glyph unicode="Í" horiz-adv-x="577" d="M156 1548l139 295h248l-248 -295h-139zM199 0v1434h180v-1434h-180z"/>
<glyph unicode="Î" horiz-adv-x="577" d="M-45 1561l313 335h54l313 -335h-176l-164 174l-164 -174h-176zM199 0v1434h180v-1434h-180z"/>
<glyph unicode="Ï" horiz-adv-x="577" d="M4 1735q0 49 33.5 82.5t81.5 33.5q51 0 84 -33t33 -83t-33 -82.5t-84 -32.5q-48 0 -81.5 33t-33.5 82zM199 0v1434h180v-1434h-180zM344 1735q0 49 33.5 82.5t81.5 33.5q51 0 83.5 -33t32.5 -83t-32.5 -82.5t-83.5 -32.5q-48 0 -81.5 33t-33.5 82z"/>
<glyph unicode="Ð" horiz-adv-x="1406" d="M72 631v172h170v631h393q279 0 469 -193q190 -190 190 -524t-190 -527q-190 -190 -469 -190h-393v631h-170zM422 172h182q82 0 153.5 18t135.5 59t110 102.5t72.5 155t26.5 210.5t-26.5 210.5t-72.5 155t-110 102.5t-135.5 59t-153.5 18h-182v-459h170v-172h-170v-459z "/>
<glyph unicode="Ñ" horiz-adv-x="1435" d="M199 0v1434h211l647 -1121v1121h180v-1434h-211l-647 1116v-1116h-180zM367 1679q38 71 96 113.5t123 42.5q73 0 147 -41t121 -41q76 0 135 74l101 -80q-38 -69 -96.5 -111.5t-123.5 -42.5q-73 0 -147 41t-121 41q-77 0 -135 -73z"/>
<glyph unicode="Ò" horiz-adv-x="1511" d="M113 717q0 344 186 536q188 197 457 197q268 0 456 -197q187 -193 187 -536t-187 -539q-188 -194 -456 -194q-269 0 -457 194q-186 195 -186 539zM299 717q0 -271 127 -416q130 -145 330 -145t327 145q129 144 129 416t-129 416q-127 145 -327 145t-330 -145 q-127 -145 -127 -416zM520 1843h248l139 -295h-139z"/>
<glyph unicode="Ó" horiz-adv-x="1511" d="M113 717q0 344 186 536q188 197 457 197q268 0 456 -197q187 -193 187 -536t-187 -539q-188 -194 -456 -194q-269 0 -457 194q-186 195 -186 539zM299 717q0 -271 127 -416q130 -145 330 -145t327 145q129 144 129 416t-129 416q-127 145 -327 145t-330 -145 q-127 -145 -127 -416zM602 1548l139 295h248l-248 -295h-139z"/>
<glyph unicode="Ô" horiz-adv-x="1511" d="M113 717q0 344 186 536q188 197 457 197q268 0 456 -197q187 -193 187 -536t-187 -539q-188 -194 -456 -194q-269 0 -457 194q-186 195 -186 539zM299 717q0 -271 127 -416q130 -145 330 -145t327 145q129 144 129 416t-129 416q-127 145 -327 145t-330 -145 q-127 -145 -127 -416zM422 1561l313 335h53l314 -335h-176l-164 174l-164 -174h-176z"/>
<glyph unicode="Õ" horiz-adv-x="1511" d="M113 717q0 344 186 536q188 197 457 197q268 0 456 -197q187 -193 187 -536t-187 -539q-188 -194 -456 -194q-269 0 -457 194q-186 195 -186 539zM299 717q0 -271 127 -416q130 -145 330 -145t327 145q129 144 129 416t-129 416q-127 145 -327 145t-330 -145 q-127 -145 -127 -416zM395 1679q38 71 96 113.5t123 42.5q74 0 148 -41t121 -41q76 0 135 74l100 -80q-38 -69 -96.5 -111.5t-122.5 -42.5q-73 0 -147 41t-121 41q-77 0 -135 -73z"/>
<glyph unicode="Ö" horiz-adv-x="1511" d="M113 717q0 344 186 536q188 197 457 197q268 0 456 -197q187 -193 187 -536t-187 -539q-188 -194 -456 -194q-269 0 -457 194q-186 195 -186 539zM299 717q0 -271 127 -416q130 -145 330 -145t327 145q129 144 129 416t-129 416q-127 145 -327 145t-330 -145 q-127 -145 -127 -416zM471 1735q0 49 33.5 82.5t81.5 33.5q51 0 83.5 -33t32.5 -83t-32.5 -82.5t-83.5 -32.5q-48 0 -81.5 33t-33.5 82zM811 1735q0 49 33.5 82.5t81.5 33.5q51 0 83.5 -33t32.5 -83t-32.5 -82.5t-83.5 -32.5q-48 0 -81.5 33t-33.5 82z"/>
<glyph unicode="×" horiz-adv-x="1134" d="M137 330l324 323l-324 324l107 106l323 -323l324 323l106 -106l-323 -324l323 -323l-106 -107l-324 324l-323 -324z"/>
<glyph unicode="Ø" horiz-adv-x="1511" d="M113 717q0 344 186 536q188 197 457 197q215 0 374 -123l125 162l121 -90l-137 -176q160 -201 160 -506q0 -343 -187 -539q-188 -194 -456 -194q-217 0 -375 122l-125 -161l-121 90l137 176q-159 199 -159 506zM299 717q0 -220 88 -357l637 830q-113 88 -268 88 q-200 0 -330 -145q-127 -145 -127 -416zM487 244q113 -88 269 -88q200 0 327 145q129 144 129 416q0 219 -88 356z"/>
<glyph unicode="Ù" horiz-adv-x="1339" d="M168 487v947h180v-959q0 -143 86 -231t236 -88t235.5 87.5t85.5 231.5v959h180v-947q0 -239 -143 -370q-142 -133 -358 -133t-361 133q-141 132 -141 370zM444 1843h248l139 -295h-139z"/>
<glyph unicode="Ú" horiz-adv-x="1339" d="M168 487v947h180v-959q0 -143 86 -231t236 -88t235.5 87.5t85.5 231.5v959h180v-947q0 -239 -143 -370q-142 -133 -358 -133t-361 133q-141 132 -141 370zM506 1548l139 295h248l-248 -295h-139z"/>
<glyph unicode="Û" horiz-adv-x="1339" d="M168 487v947h180v-959q0 -143 86 -231t236 -88t235.5 87.5t85.5 231.5v959h180v-947q0 -239 -143 -370q-142 -133 -358 -133t-361 133q-141 132 -141 370zM336 1561l313 335h53l314 -335h-176l-164 174l-164 -174h-176z"/>
<glyph unicode="Ü" horiz-adv-x="1339" d="M168 487v947h180v-959q0 -143 86 -231t236 -88t235.5 87.5t85.5 231.5v959h180v-947q0 -239 -143 -370q-142 -133 -358 -133t-361 133q-141 132 -141 370zM385 1735q0 49 33.5 82.5t81.5 33.5q51 0 83.5 -33t32.5 -83t-32.5 -82.5t-83.5 -32.5q-48 0 -81.5 33t-33.5 82z M725 1735q0 49 33.5 82.5t81.5 33.5q51 0 83.5 -33t32.5 -83t-32.5 -82.5t-83.5 -32.5q-48 0 -81.5 33t-33.5 82z"/>
<glyph unicode="Ý" horiz-adv-x="1036" d="M8 1434h199l311 -635l311 635h199l-420 -816v-618h-180v618zM408 1548l139 295h248l-248 -295h-139z"/>
<glyph unicode="Þ" horiz-adv-x="1196" d="M199 0v1434h180v-308h319q200 0 313 -109.5t113 -299.5t-113 -300t-313 -110h-319v-307h-180zM379 479h330q110 0 169.5 61.5t59.5 176.5t-59 176t-170 61h-330v-475z"/>
<glyph unicode="ß" horiz-adv-x="1134" d="M78 709v151h102v174q0 199 111 307q112 109 276 109q179 0 280 -101.5t101 -265.5q0 -109 -50.5 -183t-133.5 -101q110 -21 194 -117q86 -95 86 -248q0 -222 -117 -336t-323 -114q-88 0 -145 14v156q71 -15 145 -15q130 0 199 72t69 211q0 138 -76 212.5t-212 74.5h-72 v151h72q200 0 200 217q0 102 -58.5 159.5t-158.5 57.5q-103 0 -159 -68.5t-56 -197.5v-1028h-172v709h-102z"/>
<glyph unicode="à" horiz-adv-x="1060" d="M115 297q0 162 124 250t343 88h168v45q0 213 -226 213q-82 0 -140 -43.5t-75 -118.5l-151 35q20 130 119.5 206.5t246.5 76.5q185 0 291.5 -99t106.5 -291v-659h-136l-28 145q-112 -161 -324 -161q-145 0 -232 80t-87 233zM276 1442h248l140 -295h-140zM291 297 q0 -74 44.5 -116t125.5 -42q118 0 203 76q86 77 86 240v24h-185q-131 0 -202.5 -47.5t-71.5 -134.5z"/>
<glyph unicode="á" horiz-adv-x="1060" d="M115 297q0 162 124 250t343 88h168v45q0 213 -226 213q-82 0 -140 -43.5t-75 -118.5l-151 35q20 130 119.5 206.5t246.5 76.5q185 0 291.5 -99t106.5 -291v-659h-136l-28 145q-112 -161 -324 -161q-145 0 -232 80t-87 233zM291 297q0 -74 44.5 -116t125.5 -42 q118 0 203 76q86 77 86 240v24h-185q-131 0 -202.5 -47.5t-71.5 -134.5zM371 1147l139 295h248l-248 -295h-139z"/>
<glyph unicode="â" horiz-adv-x="1060" d="M115 297q0 162 124 250t343 88h168v45q0 213 -226 213q-82 0 -140 -43.5t-75 -118.5l-151 35q20 130 119.5 206.5t246.5 76.5q185 0 291.5 -99t106.5 -291v-659h-136l-28 145q-112 -161 -324 -161q-145 0 -232 80t-87 233zM193 1159l313 336h53l313 -336h-176l-164 174 l-163 -174h-176zM291 297q0 -74 44.5 -116t125.5 -42q118 0 203 76q86 77 86 240v24h-185q-131 0 -202.5 -47.5t-71.5 -134.5z"/>
<glyph unicode="ã" horiz-adv-x="1060" d="M115 297q0 162 124 250t343 88h168v45q0 213 -226 213q-82 0 -140 -43.5t-75 -118.5l-151 35q20 130 119.5 206.5t246.5 76.5q185 0 291.5 -99t106.5 -291v-659h-136l-28 145q-112 -161 -324 -161q-145 0 -232 80t-87 233zM178 1278q38 71 96 113.5t123 42.5 q74 0 148 -41t121 -41q77 0 135 73l100 -79q-38 -69 -96.5 -111.5t-122.5 -42.5q-73 0 -147 41t-121 41q-76 0 -135 -74zM291 297q0 -74 44.5 -116t125.5 -42q118 0 203 76q86 77 86 240v24h-185q-131 0 -202.5 -47.5t-71.5 -134.5z"/>
<glyph unicode="ä" horiz-adv-x="1060" d="M115 297q0 162 124 250t343 88h168v45q0 213 -226 213q-82 0 -140 -43.5t-75 -118.5l-151 35q20 130 119.5 206.5t246.5 76.5q185 0 291.5 -99t106.5 -291v-659h-136l-28 145q-112 -161 -324 -161q-145 0 -232 80t-87 233zM248 1333q0 49 33.5 83t80.5 34q51 0 84 -33.5 t33 -83.5t-33 -82t-84 -32q-48 0 -81 32.5t-33 81.5zM291 297q0 -74 44.5 -116t125.5 -42q118 0 203 76q86 77 86 240v24h-185q-131 0 -202.5 -47.5t-71.5 -134.5zM588 1333q0 49 33.5 83t80.5 34q51 0 84 -33.5t33 -83.5t-33 -82t-84 -32q-48 0 -81 32.5t-33 81.5z"/>
<glyph unicode="å" horiz-adv-x="1060" d="M115 297q0 162 124 250t343 88h168v45q0 213 -226 213q-82 0 -140 -43.5t-75 -118.5l-151 35q20 130 119.5 206.5t246.5 76.5q185 0 291.5 -99t106.5 -291v-659h-136l-28 145q-112 -161 -324 -161q-145 0 -232 80t-87 233zM291 297q0 -74 44.5 -116t125.5 -42 q118 0 203 76q86 77 86 240v24h-185q-131 0 -202.5 -47.5t-71.5 -134.5zM322 1337q0 87 58 146t144 59q87 0 145 -59t58 -146q0 -85 -57.5 -140.5t-145.5 -55.5q-87 0 -144.5 55.5t-57.5 140.5zM436 1339q-5 -55 41.5 -78t93 0t41.5 78q5 58 -41.5 82t-93 0t-41.5 -82z"/>
<glyph unicode="æ" horiz-adv-x="1785" d="M115 297q0 162 124 250t343 88h168v45q0 213 -226 213q-82 0 -140 -43.5t-75 -118.5l-151 35q20 130 119.5 206.5t246.5 76.5q244 0 342 -162q128 162 351 162q219 0 342 -144q124 -139 124 -346v-80h-757q8 -156 84 -248t207 -92q107 0 174 47.5t112 149.5l152 -66 q-72 -152 -175 -219t-263 -67q-272 0 -398 231q-129 -231 -385 -231q-145 0 -232 80t-87 233zM291 297q0 -74 44.5 -116t125.5 -42q118 0 203 76q86 77 86 240v24h-185q-131 0 -202.5 -47.5t-71.5 -134.5zM936 635h567q-21 118 -95.5 188t-190.5 70q-113 0 -184.5 -68 t-96.5 -190z"/>
<glyph unicode="ç" horiz-adv-x="1101" d="M111 516q0 224 120 377q123 156 349 156q306 0 432 -285l-150 -62q-83 191 -282 191q-139 0 -216 -103.5t-77 -273.5t77 -273.5t216 -103.5q199 0 282 191l150 -62q-126 -284 -432 -284q-226 0 -349 153q-120 156 -120 379zM383 -389l221 266h144l-170 -358z"/>
<glyph unicode="è" horiz-adv-x="1146" d="M111 516q0 224 120 377q123 156 347 156q219 0 342 -144q124 -139 124 -346v-80h-757q8 -156 84 -248t207 -92q107 0 174 47.5t112 149.5l152 -66q-72 -152 -175 -219t-263 -67q-224 0 -347 153q-120 156 -120 379zM297 635h567q-26 121 -98.5 189.5t-187.5 68.5 q-113 0 -184.5 -68t-96.5 -190zM328 1442h247l140 -295h-140z"/>
<glyph unicode="é" horiz-adv-x="1146" d="M111 516q0 224 120 377q123 156 347 156q219 0 342 -144q124 -139 124 -346v-80h-757q8 -156 84 -248t207 -92q107 0 174 47.5t112 149.5l152 -66q-72 -152 -175 -219t-263 -67q-224 0 -347 153q-120 156 -120 379zM297 635h567q-26 121 -98.5 189.5t-187.5 68.5 q-113 0 -184.5 -68t-96.5 -190zM414 1147l139 295h248l-248 -295h-139z"/>
<glyph unicode="ê" horiz-adv-x="1146" d="M111 516q0 224 120 377q123 156 347 156q219 0 342 -144q124 -139 124 -346v-80h-757q8 -156 84 -248t207 -92q107 0 174 47.5t112 149.5l152 -66q-72 -152 -175 -219t-263 -67q-224 0 -347 153q-120 156 -120 379zM238 1159l313 336h53l314 -336h-177l-163 174 l-164 -174h-176zM297 635h567q-26 121 -98.5 189.5t-187.5 68.5q-113 0 -184.5 -68t-96.5 -190z"/>
<glyph unicode="ë" horiz-adv-x="1146" d="M111 516q0 224 120 377q123 156 347 156q219 0 342 -144q124 -139 124 -346v-80h-757q8 -156 84 -248t207 -92q107 0 174 47.5t112 149.5l152 -66q-72 -152 -175 -219t-263 -67q-224 0 -347 153q-120 156 -120 379zM293 1333q0 49 33.5 83t81.5 34q51 0 83.5 -33.5 t32.5 -83.5t-32.5 -82t-83.5 -32q-48 0 -81.5 32.5t-33.5 81.5zM297 635h567q-26 121 -98.5 189.5t-187.5 68.5q-113 0 -184.5 -68t-96.5 -190zM633 1333q0 49 33.5 83t81.5 34q51 0 83.5 -33.5t32.5 -83.5t-32.5 -82t-83.5 -32q-48 0 -81.5 32.5t-33.5 81.5z"/>
<glyph unicode="ì" horiz-adv-x="552" d="M23 1442h247l140 -295h-140zM190 0v1032h172v-1032h-172z"/>
<glyph unicode="í" horiz-adv-x="552" d="M145 1147l140 295h247l-247 -295h-140zM190 0v1032h172v-1032h-172z"/>
<glyph unicode="î" horiz-adv-x="552" d="M-57 1159l313 336h53l314 -336h-177l-163 174l-164 -174h-176zM190 0v1032h172v-1032h-172z"/>
<glyph unicode="ï" horiz-adv-x="552" d="M-8 1333q0 49 33.5 83t80.5 34q51 0 84 -33.5t33 -83.5t-33 -82t-84 -32q-48 0 -81 32.5t-33 81.5zM190 0v1032h172v-1032h-172zM332 1333q0 49 33.5 83t80.5 34q51 0 84 -33.5t33 -83.5t-33 -82t-84 -32q-48 0 -81 32.5t-33 81.5z"/>
<glyph unicode="ð" horiz-adv-x="1187" d="M111 516q0 221 129 377q132 156 354 156q67 0 133.5 -26.5t97.5 -64.5q-53 144 -225 273l-80 -121l-121 86l78 117q-63 37 -164 78l82 125q108 -48 164 -80l76 110l119 -86l-70 -104q208 -156 300.5 -357t92.5 -483q0 -222 -131 -377q-128 -155 -352 -155 q-223 0 -354 155q-129 156 -129 377zM287 516q0 -153 78 -266q79 -111 229 -111t227 111q80 112 80 266q0 161 -82 268q-80 109 -225 109q-150 0 -229 -111q-78 -113 -78 -266z"/>
<glyph unicode="ñ" horiz-adv-x="1181" d="M188 0v1032h172v-190q118 207 342 207q142 0 223 -84.5t81 -237.5v-727h-172v682q0 211 -179 211q-120 0 -209 -127q-86 -127 -86 -334v-432h-172zM233 1278q38 71 96.5 113.5t123.5 42.5q73 0 147 -41t121 -41q77 0 135 73l100 -79q-38 -69 -96.5 -111.5t-122.5 -42.5 q-73 0 -147 41t-121 41q-76 0 -135 -74z"/>
<glyph unicode="ò" d="M111 516q0 219 135 375q140 158 360 158q222 0 359 -158q137 -155 137 -375q0 -222 -137 -377q-134 -155 -359 -155q-223 0 -360 155q-135 156 -135 377zM287 516q0 -150 84 -266q85 -111 235 -111q152 0 234 111q86 115 86 266q0 152 -86 264q-82 113 -234 113 q-150 0 -235 -113q-84 -113 -84 -264zM371 1442h247l140 -295h-140z"/>
<glyph unicode="ó" d="M111 516q0 219 135 375q140 158 360 158q222 0 359 -158q137 -155 137 -375q0 -222 -137 -377q-134 -155 -359 -155q-223 0 -360 155q-135 156 -135 377zM287 516q0 -150 84 -266q85 -111 235 -111q152 0 234 111q86 115 86 266q0 152 -86 264q-82 113 -234 113 q-150 0 -235 -113q-84 -113 -84 -264zM453 1147l139 295h248l-248 -295h-139z"/>
<glyph unicode="ô" d="M111 516q0 219 135 375q140 158 360 158q222 0 359 -158q137 -155 137 -375q0 -222 -137 -377q-134 -155 -359 -155q-223 0 -360 155q-135 156 -135 377zM266 1159l314 336h53l313 -336h-176l-164 174l-164 -174h-176zM287 516q0 -150 84 -266q85 -111 235 -111 q152 0 234 111q86 115 86 266q0 152 -86 264q-82 113 -234 113q-150 0 -235 -113q-84 -113 -84 -264z"/>
<glyph unicode="õ" d="M111 516q0 219 135 375q140 158 360 158q222 0 359 -158q137 -155 137 -375q0 -222 -137 -377q-134 -155 -359 -155q-223 0 -360 155q-135 156 -135 377zM246 1278q38 71 96 113.5t123 42.5q73 0 147 -41t121 -41q77 0 135 73l101 -79q-38 -69 -96.5 -111.5t-122.5 -42.5 q-74 0 -148 41t-121 41q-76 0 -135 -74zM287 516q0 -150 84 -266q85 -111 235 -111q152 0 234 111q86 115 86 266q0 152 -86 264q-82 113 -234 113q-150 0 -235 -113q-84 -113 -84 -264z"/>
<glyph unicode="ö" d="M111 516q0 219 135 375q140 158 360 158q222 0 359 -158q137 -155 137 -375q0 -222 -137 -377q-134 -155 -359 -155q-223 0 -360 155q-135 156 -135 377zM287 516q0 -150 84 -266q85 -111 235 -111q152 0 234 111q86 115 86 266q0 152 -86 264q-82 113 -234 113 q-150 0 -235 -113q-84 -113 -84 -264zM322 1333q0 49 33.5 83t80.5 34q51 0 84 -33.5t33 -83.5t-33 -82t-84 -32q-48 0 -81 32.5t-33 81.5zM662 1333q0 49 33.5 83t80.5 34q51 0 84 -33.5t33 -83.5t-33 -82t-84 -32q-48 0 -81 32.5t-33 81.5z"/>
<glyph unicode="÷" horiz-adv-x="1097" d="M98 573v152h901v-152h-901zM420 262q0 54 37 91.5t92 37.5q54 0 91.5 -37.5t37.5 -91.5q0 -55 -37.5 -92t-91.5 -37q-55 0 -92 36.5t-37 92.5zM420 1028q0 54 37 91.5t92 37.5q54 0 91.5 -37.5t37.5 -91.5q0 -55 -37.5 -92t-91.5 -37q-55 0 -92 36.5t-37 92.5z"/>
<glyph unicode="ø" d="M106 0l125 160q-120 150 -120 356q0 219 135 375q140 158 360 158q147 0 262 -74l115 145l123 -88l-125 -160q121 -151 121 -356q0 -222 -137 -377q-134 -155 -359 -155q-149 0 -262 73l-115 -145zM287 516q0 -122 53 -217l428 547q-74 47 -162 47q-150 0 -235 -113 q-84 -113 -84 -264zM444 186q74 -47 162 -47q152 0 234 111q86 115 86 266q0 120 -54 217z"/>
<glyph unicode="ù" horiz-adv-x="1181" d="M176 305v727h172v-682q0 -211 178 -211q121 0 207 127q88 125 88 334v432h172v-1032h-172v190q-117 -206 -342 -206q-142 0 -222.5 84t-80.5 237zM340 1442h248l139 -295h-139z"/>
<glyph unicode="ú" horiz-adv-x="1181" d="M176 305v727h172v-682q0 -211 178 -211q121 0 207 127q88 125 88 334v432h172v-1032h-172v190q-117 -206 -342 -206q-142 0 -222.5 84t-80.5 237zM436 1147l139 295h248l-248 -295h-139z"/>
<glyph unicode="û" horiz-adv-x="1181" d="M176 305v727h172v-682q0 -211 178 -211q121 0 207 127q88 125 88 334v432h172v-1032h-172v190q-117 -206 -342 -206q-142 0 -222.5 84t-80.5 237zM248 1159l313 336h53l314 -336h-176l-164 174l-164 -174h-176z"/>
<glyph unicode="ü" horiz-adv-x="1181" d="M176 305v727h172v-682q0 -211 178 -211q121 0 207 127q88 125 88 334v432h172v-1032h-172v190q-117 -206 -342 -206q-142 0 -222.5 84t-80.5 237zM301 1333q0 49 33.5 83t81.5 34q51 0 83.5 -33.5t32.5 -83.5t-32.5 -82t-83.5 -32q-48 0 -81.5 32.5t-33.5 81.5zM641 1333 q0 49 33.5 83t81.5 34q51 0 83.5 -33.5t32.5 -83.5t-32.5 -82t-83.5 -32q-48 0 -81.5 32.5t-33.5 81.5z"/>
<glyph unicode="ý" horiz-adv-x="942" d="M31 1032h188l262 -745l256 745h181l-512 -1450h-177l164 461zM377 1147l139 295h248l-248 -295h-139z"/>
<glyph unicode="þ" horiz-adv-x="1230" d="M188 -418v1868h172v-541q25 46 119 95q86 45 183 45q218 0 338 -144.5t120 -388.5t-120 -388t-338 -144q-91 0 -177 41t-125 102v-545h-172zM346 516q0 -169 80.5 -273t218.5 -104q134 0 216.5 104.5t82.5 272.5t-82.5 272.5t-216.5 104.5q-138 0 -218.5 -104t-80.5 -273 z"/>
<glyph unicode="ÿ" horiz-adv-x="942" d="M31 1032h188l262 -745l256 745h181l-512 -1450h-177l164 461zM199 1333q0 49 33.5 83t80.5 34q51 0 84 -33.5t33 -83.5t-33 -82t-84 -32q-48 0 -81 32.5t-33 81.5zM539 1333q0 49 33.5 83t80.5 34q51 0 84 -33.5t33 -83.5t-33 -82t-84 -32q-48 0 -81 32.5t-33 81.5z"/>
<glyph unicode="Œ" horiz-adv-x="2179" d="M113 717q0 344 186 536q188 197 457 197q281 0 463 -203v187h823v-172h-643v-412h520v-172h-520v-506h663v-172h-843v186q-181 -202 -463 -202q-269 0 -457 194q-186 195 -186 539zM299 717q0 -271 127 -416q130 -145 330 -145t327 145q129 144 129 416t-129 416 q-127 145 -327 145t-330 -145q-127 -145 -127 -416z"/>
<glyph unicode="œ" horiz-adv-x="1961" d="M111 516q0 219 135 375q140 158 360 158q260 0 402 -213q127 213 385 213q219 0 342 -144q125 -140 125 -346v-80h-758q8 -156 84 -248t207 -92q107 0 174 47.5t112 149.5l152 -66q-72 -152 -175 -219t-263 -67q-255 0 -385 213q-142 -213 -402 -213q-223 0 -360 155 q-135 156 -135 377zM287 516q0 -150 84 -266q85 -111 235 -111q147 0 232 113q88 113 88 264t-88 264q-85 113 -232 113q-150 0 -235 -113q-84 -113 -84 -264zM1112 635h567q-21 118 -95.5 188t-190.5 70q-113 0 -184.5 -68t-96.5 -190z"/>
<glyph unicode="Ÿ" horiz-adv-x="1036" d="M8 1434h199l311 -635l311 635h199l-420 -816v-618h-180v618zM233 1735q0 49 33.5 82.5t81.5 33.5q51 0 84 -33t33 -83t-33 -82.5t-84 -32.5q-48 0 -81.5 33t-33.5 82zM573 1735q0 49 33.5 82.5t81.5 33.5q51 0 84 -33t33 -83t-33 -82.5t-84 -32.5q-48 0 -81.5 33 t-33.5 82z"/>
<glyph unicode="ˆ" horiz-adv-x="798" d="M59 1159l314 336h53l313 -336h-176l-164 174l-163 -174h-177z"/>
<glyph unicode="˜" horiz-adv-x="796" d="M37 1278q38 71 96 113.5t123 42.5q73 0 147 -41t121 -41q77 0 135 73l101 -79q-38 -69 -96.5 -111.5t-122.5 -42.5q-74 0 -148 41t-121 41q-76 0 -135 -74z"/>
<glyph unicode=" " horiz-adv-x="972"/>
<glyph unicode=" " horiz-adv-x="1944"/>
<glyph unicode=" " horiz-adv-x="972"/>
<glyph unicode=" " horiz-adv-x="1944"/>
<glyph unicode=" " horiz-adv-x="648"/>
<glyph unicode=" " horiz-adv-x="486"/>
<glyph unicode=" " horiz-adv-x="324"/>
<glyph unicode=" " horiz-adv-x="324"/>
<glyph unicode=" " horiz-adv-x="243"/>
<glyph unicode=" " horiz-adv-x="388"/>
<glyph unicode=" " horiz-adv-x="108"/>
<glyph unicode="‐" horiz-adv-x="985" d="M145 573v152h695v-152h-695z"/>
<glyph unicode="‑" horiz-adv-x="985" d="M145 573v152h695v-152h-695z"/>
<glyph unicode="‒" horiz-adv-x="985" d="M145 573v152h695v-152h-695z"/>
<glyph unicode="–" horiz-adv-x="1148" d="M145 573v152h859v-152h-859z"/>
<glyph unicode="—" horiz-adv-x="1554" d="M145 573v152h1264v-152h-1264z"/>
<glyph unicode="‘" horiz-adv-x="612" d="M119 1450h250l141 -420h-131z"/>
<glyph unicode="’" horiz-adv-x="612" d="M102 1030l142 420h250l-261 -420h-131z"/>
<glyph unicode="‚" horiz-adv-x="612" d="M102 -29l142 420h250l-261 -420h-131z"/>
<glyph unicode="“" horiz-adv-x="968" d="M119 1450h250l141 -420h-131zM475 1450h250l141 -420h-131z"/>
<glyph unicode="”" horiz-adv-x="968" d="M102 1030l142 420h250l-261 -420h-131zM459 1030l141 420h250l-260 -420h-131z"/>
<glyph unicode="„" horiz-adv-x="968" d="M102 -29l142 420h250l-261 -420h-131zM459 -29l141 420h250l-260 -420h-131z"/>
<glyph unicode="•" horiz-adv-x="663" d="M175 676q0 66 44 110q47 47 113 47t110 -47q47 -44 47 -110t-47 -113q-44 -44 -110 -44t-113 44q-44 47 -44 113z"/>
<glyph unicode="…" horiz-adv-x="1712" d="M184 121q0 54 37 91.5t92 37.5q54 0 91.5 -37.5t37.5 -91.5q0 -55 -37.5 -92t-91.5 -37q-55 0 -92 37t-37 92zM727 121q0 54 37 91.5t92 37.5q54 0 91.5 -37.5t37.5 -91.5q0 -55 -37.5 -92t-91.5 -37q-56 0 -92.5 37t-36.5 92zM1270 121q0 54 37 91.5t92 37.5 q54 0 91.5 -37.5t37.5 -91.5q0 -55 -37.5 -92t-91.5 -37q-55 0 -92 37t-37 92z"/>
<glyph unicode=" " horiz-adv-x="388"/>
<glyph unicode="‹" horiz-adv-x="780" d="M98 571v127l568 408v-184l-400 -287l400 -287v-184z"/>
<glyph unicode="›" horiz-adv-x="780" d="M115 164v184l399 287l-399 287v184l567 -408v-127z"/>
<glyph unicode=" " horiz-adv-x="486"/>
<glyph unicode="€" horiz-adv-x="1286" d="M66 477l81 164h103v152h-184l81 163h117q41 235 180.5 364.5t352.5 129.5q278 0 403 -233l-145 -80q-91 149 -258 149q-296 0 -361 -330h486l-82 -163h-418v-152h500l-82 -164h-404q65 -330 361 -330q167 0 258 150l145 -80q-125 -233 -403 -233q-213 0 -352.5 129 t-180.5 364h-198z"/>
<glyph unicode="™" horiz-adv-x="1683" d="M57 1311v123h576v-123h-215v-697h-146v697h-215zM782 614v820h152l215 -539l215 539h152v-820h-146v519l-178 -443h-86l-178 443v-519h-146z"/>
<glyph unicode="" horiz-adv-x="1034" d="M0 0v1034h1034v-1034h-1034z"/>
</font>
</defs>
</svg>
